EXSite.pl - Portal ze wszystkim Mamy tutaj wszystko

NIE MASZ JESZCZE KONTA? ZAREJESTRUJ SIĘ ZA DARMO!   
Przypomnij hasło X

Casino Royale (2006) PL.BluRay.1080p.x264.-Crash / POLSKI LEKTOR

Dodał: CrashRed 17 Grudzień 2011 16:40


Casino Royale (2006) PL.BluRay.1080p.x264.-Crash / POLSKI LEKTOR

Casino Royale (2006) PL.BluRay.1080p.x264.-Crash / POLSKI LEKTOR

Casino Royale (2006) PL.BluRay.1080p.x264.-Crash / POLSKI LEKTOR
http://www.filmweb.pl/Casino.Royale

czas trwania: 2 godz. 24 min.
gatunek: Sensacyjny
premiera: 17 listopada 2006 (Polska) 2006-11-17 14 listopada 2006 (świat) 2006-11-14
reżyseria: Martin Campbell
scenariusz: Paul Haggis, Robert Wade

Kolejna, 21. już część przygód Jamesa Bonda (Daniel Craig) - agenta wszech czasów w szeregach brytyjskiego kontrwywiadu (MI6). Tym razem jednak twórcy postanowili powrócić do korzeni, tj. początków szpiegowskiej kariery głównego bohatera - okresu, w którym uzyskuje on dopiero status podwójnego zera, czyli "licencję na zabijanie". Młody agent zapowiada się na tyle obiecująco, że szefowa wywiadu, M (Judi Dench), zleca mu pierwszą ważną misję. Bond, współpracując z urzędniczką Ministerstwa Finansów
Vesper Lynd (Eva Green) i kolegą z CIA, Feliksem Leiterem (Jeffrey Wright), ma rozpracować siatkę terrorysty imieniem Mollaka (Sebastien Foucan). śledztwo prowadzi go na Wyspy Bahama. Tam 007 poznaje tajemniczych biznesmenów: Aleksa Dimitriosa (Simon Abkarian) i Le Chiffre'a (Mads Mikkelsen). Podejrzewa ich o współpracę z Mollaką. Rzeczywiście, Le Chiffre to gangster, który pełni rolę bankiera międzynarodowej organizacji terrorystycznej. Czarny charakter ma jednak nóż na gardle. Roztrwonił bowiem pieniądze powierzone mu przez mocodawców. Aby szybko się wzbogacić, chce wziąć udział w prestiżowym turnieju pokera, który ma się rozegrać właśnie w tytułowym, czarnogórskim domu gier - "Le Casino Royale". Jeśli wygra astronomiczną stawkę, będzie bezpieczny, bo pieniądze ponownie trafią na konto terrorystów. Jeśli przegra, zginie. Zadanie dla Jamesa Bonda jest jasne: Le Chiffre nie może wygrać. Dzięki pomocy pięknej Vesper, agent siada do rozgrywki przy karcianym stole. Domyśla się, że Le Chiffre nie ma zamiaru przegrać i zrobi wszystko, aby pozbyć się konkurencji - jeśli ta, choćby w niewielkim stopniu, spróbuje przeszkodzić mu w rozbiciu banku...


Casino Royale (2006) PL.BluRay.1080p.x264.-Crash / POLSKI LEKTOR
Casino Royale (2006) PL.BluRay.1080p.x264.-Crash / POLSKI LEKTOR

Format : Matroska
File size : 11.2 GiB
Duration : 2h 24mn
Overall bit rate : 11.1 Mbps
Video
Format/Info : Advanced Video Codec
Format profile : High@L4.1
Duration : 2h 24mn
Bit rate : 10.7 Mbps
Width : 1 920 pixels
Height : 800 pixels
Display aspect ratio : 2.40:1
Frame rate : 23.976 fps
Stream size : 10.6 GiB (95%)
Writing library : x264 core 67 r1137M 1fda882
Language : English
Audio
Format : AC-3
Duration : 2h 24mn
Bit rate mode : Constant
Bit rate : 384 Kbps
Channel(s) : 6 channels
Stream size : 397 MiB (3%)
Title : Crash-Polski



Casino Royale (2006) PL.BluRay.1080p.x264.-Crash / POLSKI LEKTOR
Uwaga! Linki nie zakodowane tylko dla zarejestrowanych użytkowników!

Nie masz konta? Zarejestruj się za darmo!
----------------
Links are not encoded only for registered users only! Plese login or register!



Użytkownik VIP

CrashRedVIP

#1 | Dodany: 17 Grudzień 2011 16:40

ok
Użytkownik VIP

nowoszUżytkownik

#2 | Dodany: 17 Grudzień 2011 20:08

Dzięki!
Użytkownik VIP

jaganUżytkownik

#3 | Dodany: 21 Grudzień 2011 12:03

thx

Informacje

Jeżeli chcesz skomentować artykuł musisz być zarejestrowany na stronie.