EXSite.pl - Portal ze wszystkim Mamy tutaj wszystko

NIE MASZ JESZCZE KONTA? ZAREJESTRUJ SIĘ ZA DARMO!   
Przypomnij hasło X

Robin Hood: Książę złodziei / Robin Hood: Prince of Thieves (1991) Multi.1080p.BluRay.x264-rahab / POLSKI LEKTOR

Dodał: CrashRed 17 Grudzień 2011 17:06


Robin Hood: Książę złodziei / Robin Hood: Prince of Thieves (1991) Multi.1080p.BluRay.x264-rahab / POLSKI LEKTOR

Robin Hood: Książę złodziei / Robin Hood: Prince of Thieves (1991)  Multi.1080p.BluRay.x264-rahab / POLSKI LEKTOR

Robin Hood: Książę złodziei / Robin Hood: Prince of Thieves (1991)  Multi.1080p.BluRay.x264-rahab / POLSKI LEKTOR
http://www.filmweb.pl/film/Robin+Hood+Ksi%C4%85%C5%BC%C4%99+z%C5%82odziei-1991-9183

czas trwania: 2 godz. 35 min.
gatunek: Przygodowy
premiera: 13 września 1991 (Polska) 1991-09-13 marzec 1991 (świat) 1991-03
reżyseria: Kevin Reynolds
scenariusz: Pen Densham, John Watson

Podczas wyprawy krzyżowej z arabskiego więzienia ucieka Robin, ratując życie Azeemowi. Ten, w ramach podzięki, płynie ze swym dobroczy?cą do jego ojczyzny - Anglii. Jednak Robin przeżyje szok, gdy zobaczy swój rodzinny dom.


Robin Hood: Książę złodziei / Robin Hood: Prince of Thieves (1991)  Multi.1080p.BluRay.x264-rahab / POLSKI LEKTOR
Robin Hood: Książę złodziei / Robin Hood: Prince of Thieves (1991)  Multi.1080p.BluRay.x264-rahab / POLSKI LEKTOR

General
Complete name : Robin.Hood.Prince.Of.Thieves.1991.PL.DE.EN.AC3.1080p.BluRay.x264-rahab.mkv
Format : Matroska
File size : 7.94 GiB
Duration : 2h 35mn
Overall bit rate : 7 335 Kbps
Video
Format/Info : Advanced Video Codec
Format profile : High@L4.1
Duration : 2h 35mn
Bit rate mode : Variable
Bit rate : 6 181 Kbps
Maximum bit rate : 16.0 Mbps
Width : 1 920 pixels
Height : 1 080 pixels
Display aspect ratio : 16:9
Frame rate : 23.976 fps
Stream size : 6.54 GiB (82%)
Title : Robin.Hood.Prince.Of.Thieves.1991.PL.DE.EN.AC3.1080p.BluRay.x264-rahab
Writing library : x264 core 115 r1995 c1e60b9
Language : English
Audio #1
ID : 2
Codec ID : A_AC3
Duration : 2h 35mn
Bit rate mode : Constant
Bit rate : 384 Kbps
Channel(s) : 6 channels
Stream size : 426 MiB (5%)
Language : Polish
Audio #2
ID : 3
Codec ID : A_AC3
Duration : 2h 35mn
Bit rate mode : Constant
Bit rate : 384 Kbps
Channel(s) : 6 channels
Stream size : 426 MiB (5%)
Language : German
Audio #3
Format : AC-3
Duration : 2h 35mn
Bit rate mode : Constant
Bit rate : 384 Kbps
Channel(s) : 6 channels
Language : English



Robin Hood: Książę złodziei / Robin Hood: Prince of Thieves (1991)  Multi.1080p.BluRay.x264-rahab / POLSKI LEKTOR
Uwaga! Linki nie zakodowane tylko dla zarejestrowanych użytkowników!

Nie masz konta? Zarejestruj się za darmo!
----------------
Links are not encoded only for registered users only! Plese login or register!



Użytkownik VIP

CrashRedVIP

#1 | Dodany: 17 Grudzień 2011 17:06

ok
Użytkownik VIP

Spider.ManUżytkownik

#2 | Dodany: 18 Grudzień 2011 08:18

Wreszcie coś konkretnego z klasyków.

Można prosić w m720p z Dual Audio. Dzięki ;)
Użytkownik VIP

tajson49Użytkownik

#3 | Dodany: 22 Grudzień 2011 15:23

love

Informacje

Jeżeli chcesz skomentować artykuł musisz być zarejestrowany na stronie.