EXSite.pl - Portal ze wszystkim Mamy tutaj wszystko

NIE MASZ JESZCZE KONTA? ZAREJESTRUJ SIĘ ZA DARMO!   
Przypomnij hasło X

Nagi instynkt 1-2 / Basic Instinct 1-2 (1992-2006) PL.720p.HDDVD.x264-Crash / POLSKI LEKTOR

Dodał: CrashRed 7 Styczeń 2012 18:03


Nagi instynkt / Basic Instinct (1992) PL.720p.HDDVD.x264-Crash / POLSKI LEKTOR

Nagi instynkt 1-2 / Basic Instinct 1-2 (1992-2006) PL.720p.HDDVD.x264-Crash / POLSKI LEKTOR

Nagi instynkt 1-2 / Basic Instinct 1-2 (1992-2006) PL.720p.HDDVD.x264-Crash / POLSKI LEKTOR
http://www.filmweb.pl/film/Nagi+instynkt-1992-1063

czas trwania: 2 godz. 7 min.
gatunek: Thriller
premiera: 31 grudnia 1992 (Polska) 1992-12-31 20 marca 1992 (świat) 1992-03-20
reżyseria: Paul Verhoeven
scenariusz: Joe Eszterhas

Właściciel klubu nocnego w San Francisco zostaje brutalnie zamordowany. śledztwo prowadzi detektyw Curran, oskarżany przez wydział wewnętrzny o skłonność do alkoholu. Główną podejrzaną jest piękna pisarka Catherine Tramell, która do perfekcji opanowała sztukę manipulacji ludzkimi emocjami. Zafascynowany jej urodą Curran daje się wciągnąć w zmysłową grę. W trakcie śledztwa zaczyna tracić zawodową czujność, co może okazać się śmiertelnie niebezpieczne.


Nagi instynkt 1-2 / Basic Instinct 1-2 (1992-2006) PL.720p.HDDVD.x264-Crash / POLSKI LEKTOR
Nagi instynkt 1-2 / Basic Instinct 1-2 (1992-2006) PL.720p.HDDVD.x264-Crash / POLSKI LEKTOR

Format : Matroska
File size : 4.37 GiB
Duration : 2h 8mn
Overall bit rate : 4 875 Kbps
Video
Format/Info : Advanced Video Codec
Format profile : High@L5.1
Duration : 2h 8mn
Bit rate : 4 425 Kbps
Width : 1 280 pixels
Height : 552 pixels
Display aspect ratio : 2.35:1
Original display aspect ratio : 2.35:1
Frame rate : 23.976 fps
Stream size : 3.88 GiB (89%)
Title : Basic Instinct
Writing library : x264 core 54 svn-635M
Language : English
Audio
Format : AC-3
Duration : 2h 8mn
Bit rate mode : Constant
Bit rate : 448 Kbps
Channel(s) : 6 channels
Stream size : 411 MiB (9%)
Title : Crash-Polski



Nagi instynkt 1-2 / Basic Instinct 1-2 (1992-2006) PL.720p.HDDVD.x264-Crash / POLSKI LEKTOR
Uwaga! Linki nie zakodowane tylko dla zarejestrowanych użytkowników!

Nie masz konta? Zarejestruj się za darmo!
----------------
Links are not encoded only for registered users only! Plese login or register!






Nagi instynkt 2 / Basic Instinct 2 (2006) PL.720p.BluRay.x264.AC3-Crash / POLSKI LEKTOR

Nagi instynkt 1-2 / Basic Instinct 1-2 (1992-2006) PL.720p.HDDVD.x264-Crash / POLSKI LEKTOR

http://www.filmweb.pl/2.Nagi.Instynkt

czas trwania: 1 godz. 54 min.
gatunek: Kryminał, Thriller
premiera: 29 marca 2006 (Polska) 2006-03-29 21 marca 2006 (świat) 2006-03-21
reżyseria: Michael Caton-Jones
scenariusz: Leora Barish, Henry Bean

W sprawie Cathrine Tramell (Sharon Stone), oskarżonej o zamordowanie kochanka, zaangażowany zostaje uznany londy?ski psychiatra, Robert Glass (David Morrissey). Jego zadaniem jest udowodnienie jak groźna jest, znana nam z pierwszej części erotycznego thrillera wszech czasów, autorka bestselerowych kryminałów. Zafascynowany Cathrine, Glass, wbrew swoim zasadom i ostrzeżeniom pozwala jej na uwodzicielska grę w trakcie dochodzenia. Zda sobie sprawę, że stracił kontrolę nad sytuacją, dopiero gdy
ginąć zaczną kolejne osoby z jego najbliższego otoczenia. Opisane przez Catherine morderstwa, jak wiemy, potrafią przenosić się z literackiej fikcji do realnego życia...

Nagi instynkt 1-2 / Basic Instinct 1-2 (1992-2006) PL.720p.HDDVD.x264-Crash / POLSKI LEKTOR
Nagi instynkt 1-2 / Basic Instinct 1-2 (1992-2006) PL.720p.HDDVD.x264-Crash / POLSKI LEKTOR

Format : Matroska
File size : 4.16 GiB
Duration : 1h 54mn
Overall bit rate : 5 228 Kbps
Video
Format : AVC
Format profile : High@L4.1
Duration : 1h 54mn
Bit rate : 4 778 Kbps
Width : 1 280 pixels
Height : 534 pixels
Display aspect ratio : 2.35:1
Frame rate : 23.976 fps
Stream size : 3.72 GiB (89%)
Title : Crash H.264
Writing library : x264 core 66 r1113M cc4f807
Language : English
Audio
Format : AC-3
Duration : 1h 54mn
Bit rate mode : Constant
Bit rate : 448 Kbps
Channel(s) : 6 channels
Stream size : 365 MiB (9%)
Title : Crash-Polski
Language : Polish



Uwaga! Linki nie zakodowane tylko dla zarejestrowanych użytkowników!

Nie masz konta? Zarejestruj się za darmo!
----------------
Links are not encoded only for registered users only! Plese login or register!



Użytkownik VIP

CrashRedVIP

#1 | Dodany: 17 Grudzień 2011 17:58

Nagi instynkt / Basic Instinct (1992) PL.DUAL.1080p.BluRay.x264-BRY POLSKI LEKTOR


Ogólne
Pełna ścieżka : Basic.Instinct.1992.DUAL.1080p.BluRay.x264-BRY.mkv
Format : Matroska
Rozmiar pliku : 11,3 GB
Czas trwania : 2h 8 min.
Wideo
Format/Informacja : Advanced Video Codec
Profil formatu : High@L4.1
ID kodeka : V_MPEG4/ISO/AVC
Czas trwania : 2h 8 min.
Przepływność bitów : 10,4 Mb/s
Nominalna przepływaność : 10,6 Mb/s
Szerokość : 1.920 pikseli
Wysokość : 820 pikseli
Proporcje obrazu : 2.35
Szybkość wyświetlania klatek : 23,976 kl/s
Rodzaj skanu : Progresywny
bity/(piksele*ramki) : 0.274
Rozmiar strumienia : 9,27 GB (82%)
Tytuł : Nagi Instynkt
Biblioteka zapisująca : x264 core 66 r1114M a933a3e
Audio #1
Format : DTS
Czas trwania : 2h 8 min.
Rodzaj przepływności : Stała
Przepływność bitów : 1.510 Kb/s
Kanały : 6 kanałów
Rozdzielczość : 24 bity
Rozmiar strumienia : 1,35 GB (12%)
Tytuł : ENG
Język : Angielski

Audio #2
ID : 3
Format : AC-3
Czas trwania : 2h 8 min.
Rodzaj przepływności : Stała
Przepływność bitów : 448 Kb/s
Kanały : 6 kanałów
Opóźnienie wideo : 1s 731ms
Rozmiar strumienia : 411 MB (4%)
Tytuł : PL
Język : Polski

Tekst
ID kodeka/Informacja : Sub Station Alpha
Tytuł : PL
Język : Polski

Uwaga! Linki nie zakodowane tylko dla zarejestrowanych użytkowników!

Nie masz konta? Zarejestruj się za darmo!
----------------
Links are not encoded only for registered users only! Plese login or register!
Użytkownik VIP

dyskoteka1987Trial Uploader

#2 | Dodany: 8 Styczeń 2012 12:21

Słodziutka Sharon Stone ... samym wzrokiem kusi , 1 Super winked
Użytkownik VIP

qgrzegorzGość

#3 | Dodany: 10 Marzec 2012 19:31

Nagi instynkt / Basic Instinct (1992)DUAL.1080p.BluRay.x264-BRY

Dane Techniczne:
General           : Basic.Instinct.1992.DUAL.1080p.BluRay.x264-BRY.mkv
Format            : Matroska at 12,6 Mb/s
Length            : 11,3 GB for 2h 8 min. 15s 811ms

Video #0          : AVC at 10,6 Mb/s
Aspect            : 1920 x 820 (2.341) at 23.976 fps

Audio #0          : DTS at 1.510 Kb/s
Infos             : 6 kanałów, 48,0 KHz
Language          : en

Audio #1          : AC-3 at 448 Kb/s
Infos             : 6 kanałów, 48,0 KHz
Language          : pl

Text #0           : SSA
Language          : pl

INFO Lektor: lektor profesjonalny
Źródło obrazu: *Blu-ray/DVD*


Opis uploadu:
wielkość całości: 12.49 GB
rodzaj kompresji: .rar
zawartość uploadu: plik .mkv
wersja językowa: PL\EN
Dane naprawcze:10%


Download:
Uwaga! Linki nie zakodowane tylko dla zarejestrowanych użytkowników!

Nie masz konta? Zarejestruj się za darmo!
----------------
Links are not encoded only for registered users only! Plese login or register!


HASŁO:
filmik

Martwe linki.Pisz na PW zrobie reupload.
Użytkownik VIP

XPIHbUżytkownik

#4 | Dodany: 16 Wrzesień 2012 23:33

linki
wrzuć jeszcze raz jak jeszcze masz
Użytkownik VIP

Rossi70Użytkownik

#5 | Dodany: 4 Sierpień 2013 23:48


Nagi Instynkt 2 (2006) PL.AC3.DVDRip.XviD-P2P | Lektor PL



Video............: 640 x 352, XviD, 1306 kbps
Audio............: AC3, 448 kbps, 6 kanałów
Czas trwania.....: 114 min.
Język............: Polski Lektor
Rozmiar..........: 1.4 GB


Uwaga! Linki nie zakodowane tylko dla zarejestrowanych użytkowników!

Nie masz konta? Zarejestruj się za darmo!
----------------
Links are not encoded only for registered users only! Plese login or register!

Informacje

Jeżeli chcesz skomentować artykuł musisz być zarejestrowany na stronie.