EXSite.pl - Portal ze wszystkim Mamy tutaj wszystko

NIE MASZ JESZCZE KONTA? ZAREJESTRUJ SIĘ ZA DARMO!   
Przypomnij hasło X

Kosmiczne jaja / Spaceballs (1987) PL.720p.BluRay.x264-Crash / POLSKI LEKTOR +mHD

Dodał: CrashRed 7 Styczeń 2012 19:27


Kosmiczne jaja / Spaceballs (1987) PL.720p.BluRay.x264-Crash / POLSKI LEKTOR +mHD

Kosmiczne jaja / Spaceballs (1987) PL.720p.BluRay.x264-Crash / POLSKI LEKTOR  +mHD

Kosmiczne jaja / Spaceballs (1987) PL.720p.BluRay.x264-Crash / POLSKI LEKTOR  +mHD
http://www.filmweb.pl/film/Kosmiczne+jaja-1987-6853

czas trwania: 1 godz. 36 min.
gatunek: Komedia, Przygodowy, Sci-Fi
premiera: 24 czerwca 1987 (świat) 1987-06-24
reżyseria: Mel Brooks
scenariusz: Mel Brooks, Ronny Graham

Parodia "Gwiezdnych Wojen". Mel Brooks nie pozostawił na nikim suchej nitki. Jabba jako Pizza Hutt jest ohydny. Lord Dark Helmet (Rick Moranis) chce porwać księżniczkę i wziąć ją jako zakładniczke. Wypuści ją dopiero wtedy, kiedy cały zapas świeżego powietrza zostanie przesłany do Prezydenta Skrooba (Mel Brooks). Księżniczce pomaga bohaterski Lone Starr (Bill Pullman) i jego towarzysz Barf (John Candy).


Kosmiczne jaja / Spaceballs (1987) PL.720p.BluRay.x264-Crash / POLSKI LEKTOR  +mHD
Kosmiczne jaja / Spaceballs (1987) PL.720p.BluRay.x264-Crash / POLSKI LEKTOR  +mHD

Format : Matroska
File size : 3.53 GiB
Duration : 1h 36mn
Overall bit rate : 5 254 Kbps
Video
Format/Info : Advanced Video Codec
Format profile : High@L4.1
Duration : 1h 36mn
Bit rate : 4 995 Kbps
Width : 1 280 pixels
Height : 696 pixels
Display aspect ratio : 16:9
Frame rate : 23.976 fps
Stream size : 3.29 GiB (93%)
Title : Crash
Writing library : x264 core 67 r1153 7b6ce6a
Language : English
Audio
Format : AC-3
Duration : 1h 36mn
Bit rate mode : Constant
Bit rate : 256 Kbps
Channel(s) : 2 channels
Stream size : 176 MiB (5%)
Title : Crash-Polski



Kosmiczne jaja / Spaceballs (1987) PL.720p.BluRay.x264-Crash / POLSKI LEKTOR  +mHD
Uwaga! Linki nie zakodowane tylko dla zarejestrowanych użytkowników!

Nie masz konta? Zarejestruj się za darmo!
----------------
Links are not encoded only for registered users only! Plese login or register!





Kosmiczne jaja / Spaceballs (1987) PL.m720p.BluRay.x264-Crash / POLSKI LEKTOR

Format : Matroska
File size : 1.69 GiB
Duration : 1h 36mn
Overall bit rate : 2 513 Kbps
Video
Format/Info : Advanced Video Codec
Format profile : High@L4.0
Duration : 1h 36mn
Bit rate : 2 207 Kbps
Width : 1 280 pixels
Height : 696 pixels
Display aspect ratio : 16:9
Frame rate : 23.976 fps
Stream size : 1.48 GiB (88%)
Writing library : x264 core 67 r1153M 7b6ce6a
Language : English
Audio
Format : AC-3
Duration : 1h 36mn
Bit rate mode : Constant
Bit rate : 256 Kbps
Channel(s) : 2 channels
Stream size : 176 MiB (10%)
Title : Crash-Polski

Uwaga! Linki nie zakodowane tylko dla zarejestrowanych użytkowników!

Nie masz konta? Zarejestruj się za darmo!
----------------
Links are not encoded only for registered users only! Plese login or register!



Użytkownik VIP

CrashRedVIP

#1 | Dodany: 17 Grudzień 2011 18:45

to widzial ten wie ze pozycja obowiazkowa dla fanow komedi , a kto nie widzial ma okazje nadrobic strate :)
Użytkownik VIP

renek13041969Użytkownik

#2 | Dodany: 17 Grudzień 2011 19:07

ok
OctalCore AMD X8 FX - 8350 Black Edition 4000 MHz
Memory: 16 GB RAM,
ATI Radeon R9 280X
Dysk Seagate Barracuda ST2000DM001-1ER164 (2000 GB, 7200 RPM, SATA-III)
Użytkownik VIP

SaipherUżytkownik

#3 | Dodany: 17 Grudzień 2011 20:35

thx Widziałem to z 10 razy, ale obejrzę raz jeszcze ok
Flynn Lives !
Użytkownik VIP

slawomirasUżytkownik

#4 | Dodany: 17 Grudzień 2011 22:43

Film taki jak tytuł. Są świetne sceny i teksty na których niektórzy się wychowali :D
Naprawdę polecamy jak koledzy powyżej
Użytkownik VIP

No.i.Po.Co.Te.OczyUżytkownik

#5 | Dodany: 7 Styczeń 2012 21:13

Kosmiczne jaja / Spaceballs (1987) PL.m720p.BluRay.x264-Crash / POLSKI LEKTOR




DANE TECHNiCZNE / RELEASE .NFO

Format : Matroska
File size : 1.69 GiB
Duration : 1h 36mn
Overall bit rate : 2 513 Kbps
Video
Format/Info : Advanced Video Codec
Format profile : High@L4.0
Duration : 1h 36mn
Bit rate : 2 207 Kbps
Width : 1 280 pixels
Height : 696 pixels
Display aspect ratio : 16:9
Frame rate : 23.976 fps
Stream size : 1.48 GiB (88%)
Writing library : x264 core 67 r1153M 7b6ce6a
Language : English
Audio
Format : AC-3
Duration : 1h 36mn
Bit rate mode : Constant
Bit rate : 256 Kbps
Channel(s) : 2 channels
Stream size : 176 MiB (10%)
Title : Crash-Polski









POBiERZ / DOWNLOAD

DOWNLOAD LiNKS
DOWNLOAD 400MB PART'S!
Uwaga! Linki nie zakodowane tylko dla zarejestrowanych użytkowników!

Nie masz konta? Zarejestruj się za darmo!
----------------
Links are not encoded only for registered users only! Plese login or register!
Użytkownik VIP

ampatinisUżytkownik

#6 | Dodany: 24 Styczeń 2012 16:28

Kosmiczne jaja / Spaceballs (1987) PL.720p.BluRay.x264-Crash / POLSKI LEKTOR

Format : Matroska
File size : 3.53 GiB
Duration : 1h 36mn
Overall bit rate : 5 254 Kbps
Video
Format/Info : Advanced Video Codec
Format profile : High@L4.1
Duration : 1h 36mn
Bit rate : 4 995 Kbps
Width : 1 280 pixels
Height : 696 pixels
Display aspect ratio : 16:9
Frame rate : 23.976 fps
Stream size : 3.29 GiB (93%)
Title : Crash
Writing library : x264 core 67 r1153 7b6ce6a
Language : English
Audio
Format : AC-3
Duration : 1h 36mn
Bit rate mode : Constant
Bit rate : 256 Kbps
Channel(s) : 2 channels
Stream size : 176 MiB (5%)
Title : Crash-Polski



Uwaga! Linki nie zakodowane tylko dla zarejestrowanych użytkowników!

Nie masz konta? Zarejestruj się za darmo!
----------------
Links are not encoded only for registered users only! Plese login or register!

Informacje

Jeżeli chcesz skomentować artykuł musisz być zarejestrowany na stronie.