EXSite.pl - Portal ze wszystkim Mamy tutaj wszystko

NIE MASZ JESZCZE KONTA? ZAREJESTRUJ SIĘ ZA DARMO!   
Przypomnij hasło X

Tylko jeden / The One (2001) PL.BluRay.720p.AC3.x264-Crash / POLSKI LEKTOR +mHD

Dodał: CrashRed 15 Styczeń 2012 15:10


Tylko jeden / The One (2001) PL.BluRay.720p.AC3.x264-Crash / POLSKI LEKTOR

Tylko jeden / The One (2001) PL.BluRay.720p.AC3.x264-Crash / POLSKI LEKTOR  +mHD

Tylko jeden / The One (2001) PL.BluRay.720p.AC3.x264-Crash / POLSKI LEKTOR  +mHD
http://www.filmweb.pl/Tylko.Jeden

czas trwania: 1 godz. 27 min.
gatunek: Akcja, Sci-Fi
premiera: 28 czerwca 2002 (Polska) 2002-06-28 2 listopada 2001 (świat) 2001-11-02
reżyseria: James Wong
scenariusz: Glen Morgan, James Wong

Jet Li w zaskakującej, podwójnej roli Gabriela Yulawa - policjanta, który musi stoczyć walkę z grożną wersją samego siebie, zbiegłą z innego wymiaru i pragnącą jego śmierci. Spotkanie ze swoim drugim ja to dla Gabriela początek zmaga? ze złem. Jego postrzeganie rzeczywistości, dobra i zła już nigdy nie będzie takie samo.


Format : Matroska
File size : 4.09 GiB
Duration : 1h 27mn
Overall bit rate : 6 709 Kbps
Video
Format/Info : Advanced Video Codec
Format profile : High@L4.1
Duration : 1h 27mn
Bit rate : 6 070 Kbps
Width : 1 280 pixels
Height : 534 pixels
Display aspect ratio : 2.35:1
Frame rate : 23.976 fps
Stream size : 3.62 GiB (88%)
Writing library : x264 core 107 r1772 c9dad9e
Language : English
Audio
Format : AC-3
Duration : 1h 27mn
Bit rate mode : Constant
Bit rate : 640 Kbps
Channel(s) : 6 channels
Stream size : 400 MiB (10%)
Title : Crash-Polski



Tylko jeden / The One (2001) PL.BluRay.720p.AC3.x264-Crash / POLSKI LEKTOR  +mHD
Uwaga! Linki nie zakodowane tylko dla zarejestrowanych użytkowników!

Nie masz konta? Zarejestruj się za darmo!
----------------
Links are not encoded only for registered users only! Plese login or register!





Tylko jeden / The One (2001) PL.m-720p.BluRay.x264-Crash / POLSKI LEKTOR

Format : Matroska
File size : 2.19 GiB
Duration : 1h 27mn
Overall bit rate : 3 590 Kbps
Video
Format/Info : Advanced Video Codec
Format profile : High@L4.1
Duration : 1h 27mn
Bit rate : 2 950 Kbps
Width : 1 280 pixels
Height : 544 pixels
Display aspect ratio : 2.35:1
Frame rate : 23.976 fps
Stream size : 1.76 GiB (80%)
Writing library : x264 core 115 r1995 c1e60b9
Language : English
Audio
Format : AC-3
Duration : 1h 27mn
Bit rate mode : Constant
Bit rate : 640 Kbps
Channel(s) : 6 channels
Stream size : 400 MiB (18%)
Title : Crash-Polski


Uwaga! Linki nie zakodowane tylko dla zarejestrowanych użytkowników!

Nie masz konta? Zarejestruj się za darmo!
----------------
Links are not encoded only for registered users only! Plese login or register!



Użytkownik VIP

CrashRedVIP

#1 | Dodany: 17 Grudzień 2011 19:07

[size=2]Tylko jeden / The One (2001) PL.1080p.BluRay.x264-Crash / POLSKI LEKTOR[/size]


Format : Matroska
File size : 6.17 GiB
Duration : 1h 27mn
Overall bit rate : 10.1 Mbps
Video
Format/Info : Advanced Video Codec
Format profile : High@L4.1
Duration : 1h 27mn
Bit rate : 9 476 Kbps
Width : 1 920 pixels
Height : 816 pixels
Display aspect ratio : 2.35:1
Frame rate : 23.976 fps
Stream size : 5.65 GiB (92%)
Title : Crash
Writing library : x264 core 114 r1900 60ef1f8
Language : French
Audio
Format : AC-3
Duration : 1h 27mn
Bit rate mode : Constant
Bit rate : 640 Kbps
Channel(s) : 6 channels
Stream size : 400 MiB (6%)
Title : Crash-Polski


Uwaga! Linki nie zakodowane tylko dla zarejestrowanych użytkowników!

Nie masz konta? Zarejestruj się za darmo!
----------------
Links are not encoded only for registered users only! Plese login or register!


Informacje

Jeżeli chcesz skomentować artykuł musisz być zarejestrowany na stronie.