EXSite.pl - Portal ze wszystkim Mamy tutaj wszystko

NIE MASZ JESZCZE KONTA? ZAREJESTRUJ SIĘ ZA DARMO!   
Przypomnij hasło X

Planeta skarbów / Treasure Planet (2002) PL.720p.HDTV.x264 / POLSKI DUBBING

Dodał: CrashRed 17 Grudzień 2011 20:19


Planeta skarbów / Treasure Planet (2002) PL.720p.HDTV.x264 / POLSKI DUBBING

Planeta skarbów / Treasure Planet (2002) PL.720p.HDTV.x264 / POLSKI DUBBING

Planeta skarbów / Treasure Planet (2002) PL.720p.HDTV.x264 / POLSKI DUBBING
http://www.filmweb.pl/film/Planeta+skarb%C3%B3w-2002-32254

czas trwania: 1 godz. 35 min.
gatunek: Animacja, Familijny, Przygodowy, Sci-Fi
premiera: 29 listopada 2002 (Polska) 2002-11-29 5 listopada 2002 (świat) 2002-11-05
reżyseria: John Musker, Ron Clements
scenariusz: Ron Clements, John Musker (więcej...)

Ekranizacja "Wyspy skarbów", której akcja rozgrywa się w kosmosie. Piętnastoletni Jim Hawkins wyrusza na międzygalaktyczną wyprawę na pokładzie kosmicznego galeonu i zaprzyjaźnia się z kucharzem pokładowym Johnem Silverem, charyzmatycznym cyborgiem. Z jego pomocą cała załoga stawia czoła supernowym, czarnym dziurom i gwałtownym burzom kosmicznym. Wkrótce Jim staje przed jeszcze większym wyzwaniem – odkrywa bowiem, że jego zaufany przyjaciel John Silver jest piratem, który planuje wzniecić bunt na pokładzie...



Format : Matroska
File size : 2.75 GiB
Duration : 1h 31mn
Overall bit rate : 4 295 Kbps
Video
ID : 1
Format : AVC
Format/Info : Advanced Video Codec
Format profile : High@L4.1
Duration : 1h 31mn
Bit rate mode : Variable
Bit rate : 3 825 Kbps
Maximum bit rate : 40.0 Mbps
Width : 1 280 pixels
Height : 720 pixels
Display aspect ratio : 16:9
Frame rate : 25.000 fps
Stream size : 2.45 GiB (89%)
Writing library : x264 core 65 r999kMod cc51047
Language : English
Audio
ID : 2
Format : AC-3
Duration : 1h 31mn
Bit rate mode : Constant
Bit rate : 384 Kbps
Channel(s) : 6 channels
Stream size : 251 MiB (9%)
Language : Polish



Planeta skarbów / Treasure Planet (2002) PL.720p.HDTV.x264 / POLSKI DUBBING
Uwaga! Linki nie zakodowane tylko dla zarejestrowanych użytkowników!

Nie masz konta? Zarejestruj się za darmo!
----------------
Links are not encoded only for registered users only! Plese login or register!



Użytkownik VIP

CrashRedVIP

#1 | Dodany: 17 Grudzień 2011 20:19

ok
Użytkownik VIP

aqagenUżytkownik

#2 | Dodany: 17 Grudzień 2011 20:26

dajcie w AVI (jesli można)

dajcie w AVI (jeśli można 1 link)
Użytkownik VIP

infernoTRHUżytkownik

#3 | Dodany: 18 Grudzień 2011 00:36

jedna z moich ulubionych bajek :P

Informacje

Jeżeli chcesz skomentować artykuł musisz być zarejestrowany na stronie.