EXSite.pl - Portal ze wszystkim Mamy tutaj wszystko

NIE MASZ JESZCZE KONTA? ZAREJESTRUJ SIĘ ZA DARMO!   
Przypomnij hasło X

Mała syrenka / The Little Mermaid (1989) PL.720p.HDTV.x264-DON / POLSKI DUBBING

Dodał: CrashRed 17 Grudzień 2011 21:24


Mała syrenka / The Little Mermaid (1989) PL.720p.HDTV.x264-DON / POLSKI DUBBING

Mała syrenka / The Little Mermaid (1989) PL.720p.HDTV.x264-DON / POLSKI DUBBING

Mała syrenka / The Little Mermaid (1989) PL.720p.HDTV.x264-DON / POLSKI DUBBING
http://www.filmweb.pl/film/Ma%C5%82a+syrenka-1989-104

czas trwania: 1 godz. 23 min.
gatunek: Animacja, Fantasy, Muzyczny
premiera: 29 maja 1998 (Polska) 1998-05-29 15 listopada 1989 (świat) 1989-11-15
reżyseria: John Musker, Ron Clements
scenariusz: John Musker, Ron Clements

Syrenka Ariel, jest córką podmorskiego króla mórz Trytona, który niechce by ludzie dowiedzieli sie o istnieniu syren. Pewnego dnia, Ariel wypływa na powierzchnię ze swoim przyjacielem, rybką Florkiem i ochroniarzem wybranym przez Trytona, krabem Sebastianem i razem obserwują zabawę na statku. Nadchodzi ulewa, sztorm i burza. Statek zaczyna spadać na dno, ale na szczęście Arielce udaje sie uratować młodego i przystojnego Eryka, jak sie okazuje - księcia. Syrenka bardzo chce zdobyć jego serce i
oczywiście nie zdradzając mu tajemnicy o istnieniu istot podmorskich. Podpisuje uwowę z wiedźmą morską, Urszulą, która w zamian za głos Arielki podaruje jej nogi i ręce, ale tylko na 3 dni. Jeżeli nie rozkocha w sobie księcia w ciągu określonego czasu, stanie się znów syreną i będzie należeć do Urszuli. Kiedy ta dowiaduje się, że mimo braku głosu Ariel może zdobyć jego serce, postanawia do tego nie dopuścić


Format : Matroska
File size : 2.30 GiB
Duration : 1h 22mn
Overall bit rate : 3 994 Kbps
Video
Format/Info : Advanced Video Codec
Format profile : High@L4.1
Duration : 1h 22mn
Bit rate : 3 806 Kbps
Width : 1 280 pixels
Height : 720 pixels
Display aspect ratio : 16:9
Frame rate : 23.976 fps
Stream size : 2.15 GiB (93%)
Writing library : x264 core 110 r1820+3 c488b3b
Language : English
Audio
Format : AC-3
Duration : 1h 22mn
Bit rate mode : Constant
Bit rate : 192 Kbps
Channel(s) : 2 channels
Stream size : 113 MiB (5%)
Language : Polish



Mała syrenka / The Little Mermaid (1989) PL.720p.HDTV.x264-DON / POLSKI DUBBING
Uwaga! Linki nie zakodowane tylko dla zarejestrowanych użytkowników!

Nie masz konta? Zarejestruj się za darmo!
----------------
Links are not encoded only for registered users only! Plese login or register!



Użytkownik VIP

CrashRedVIP

#1 | Dodany: 17 Grudzień 2011 21:25

ok
Użytkownik VIP

kafalarUżytkownik

#2 | Dodany: 18 Grudzień 2011 11:58

nie wiem jak u was ale u mnei audio rozjezdza sie z obrazem, dzwięk nie jest zsynchronizowany
Użytkownik VIP

FifjorUżytkownik

#3 | Dodany: 18 Grudzień 2011 13:26

szkoda ;/a bardzo?
Użytkownik VIP

kacu8Użytkownik

#4 | Dodany: 7 Luty 2014 13:38

dasz reupa??

Informacje

Jeżeli chcesz skomentować artykuł musisz być zarejestrowany na stronie.