EXSite.pl - Portal ze wszystkim Mamy tutaj wszystko

NIE MASZ JESZCZE KONTA? ZAREJESTRUJ SIĘ ZA DARMO!   
Przypomnij hasło X

Jestem legendą / I Am Legend (2007) PL.720p.Blu-Ray.x264-Crash / POLSKI LEKTOR +mHD

Dodał: CrashRed 14 Styczeń 2012 20:17


Jestem legendą / I Am Legend (2007) PL.720p.Blu-Ray.x264-Crash / POLSKI LEKTOR

Jestem legendą / I Am Legend (2007) PL.720p.Blu-Ray.x264-Crash / POLSKI LEKTOR   +mHD

Jestem legendą / I Am Legend (2007) PL.720p.Blu-Ray.x264-Crash / POLSKI LEKTOR   +mHD
http://www.filmweb.pl/Jestem.Legenda

czas trwania: 1 godz. 41 min.
gatunek: Horror, Sci-Fi
premiera: 11 stycznia 2008 (Polska) 2008-01-11 5 grudnia 2007 (świat) 2007-12-05
reżyseria: Francis Lawrence
scenariusz: Akiva Goldsman, Mark Protosevich

Nowy Jork. Miasto opanował dziwny wirus, który spowodował zmianę ludzi w pełne agresji i szale?stwa potwory. Osoby, które były odporne na działanie wirusa, zostały zabite przez ukrywające się w mroku kreatury. Przeżył tylko jeden człowiek, Robert Nevill, który wraz ze swoim psem prowadzi monotonne życie: w dzie? stara się zdobyć pożywienie a w nocy ukrywa się i walczy o swoje życie. Nevill postanawia odkryć szczepionkę, by odwrócić obecną sytuację. W piwnicy ma laboratorium, gdzie przeprowadza eksperymenty. Pewnego dnia traci wszelką nadzieję i rusza do bezpośredniej walki z przerażającymi potworami.


Jestem legendą / I Am Legend (2007) PL.720p.Blu-Ray.x264-Crash / POLSKI LEKTOR   +mHD
Jestem legendą / I Am Legend (2007) PL.720p.Blu-Ray.x264-Crash / POLSKI LEKTOR   +mHD

Format : Matroska
File size : 3.56 GiB
Duration : 1h 40mn
Overall bit rate : 5 077 Kbps
Video
Format/Info : Advanced Video Codec
Format profile : High@L5.1
Duration : 1h 40mn
Bit rate : 4 689 Kbps
Width : 1 280 pixels
Height : 528 pixels
Display aspect ratio : 2.40:1
Frame rate : 23.976 fps
Stream size : 3.22 GiB (90%)
Writing library : x264 core 58 git-0
Language : English
Audio
Format : AC-3
Duration : 1h 40mn
Bit rate mode : Constant
Bit rate : 384 Kbps
Channel(s) : 6 channels
Stream size : 276 MiB (8%)
Title : Crash-Polski



Jestem legendą / I Am Legend (2007) PL.720p.Blu-Ray.x264-Crash / POLSKI LEKTOR   +mHD
Uwaga! Linki nie zakodowane tylko dla zarejestrowanych użytkowników!

Nie masz konta? Zarejestruj się za darmo!
----------------
Links are not encoded only for registered users only! Plese login or register!







Jestem legendą / I Am Legend (2007) PL.m720p.Blu-Ray.x264-Crash / POLSKI LEKTOR

Format                           : Matroska
File size                        : 2.29 GiB
Duration                         : 1h 40mn
Overall bit rate                 : 3 258 Kbps
Video
Format/Info                      : Advanced Video Codec
Format profile                   : High@L4.1
Duration                         : 1h 40mn
Bit rate                         : 2 872 Kbps
Width                            : 1 280 pixels
Height                           : 544 pixels
Display aspect ratio             : 2.35:1
Frame rate                       : 23.976 fps
Stream size                      : 1.97 GiB (86%)
Title                            : I Am Legend [2007] m720p ~*cyke2702@aRiL*~
Writing library                  : x264 core 114 r1924 08d04a4
Language                         : English
Audio
Format                           : AC-3
Duration                         : 1h 40mn
Bit rate mode                    : Constant
Bit rate                         : 384 Kbps
Channel(s)                       : 6 channels
Stream size                      : 276 MiB (12%)
Title                            : Crash-Polski


Uwaga! Linki nie zakodowane tylko dla zarejestrowanych użytkowników!

Nie masz konta? Zarejestruj się za darmo!
----------------
Links are not encoded only for registered users only! Plese login or register!



linki na filesonic i uploaded wymagane haslo : crash


Użytkownik VIP

CrashRedVIP

#1 | Dodany: 18 Grudzień 2011 16:10

ok
Użytkownik VIP

karamba11Użytkownik

#2 | Dodany: 18 Grudzień 2011 17:51

ale to nie alternatywna wersja
Użytkownik VIP

TommnyUżytkownik

#3 | Dodany: 18 Grudzień 2011 18:10

@CrashRed
Masz może filmy: Goście, Goście i Goście, Goście 2: Korytarz czasu w HD ?
Albo chociaż w zwykłej wersji.
Użytkownik VIP

adrianek2wwyUżytkownik

#4 | Dodany: 6 Luty 2012 17:41

daj na rapisheare
Użytkownik VIP

syczek9Użytkownik

#5 | Dodany: 12 Luty 2012 20:28

linki

Informacje

Jeżeli chcesz skomentować artykuł musisz być zarejestrowany na stronie.