EXSite.pl - Portal ze wszystkim Mamy tutaj wszystko

NIE MASZ JESZCZE KONTA? ZAREJESTRUJ SIĘ ZA DARMO!   
Przypomnij hasło X

Hulk na obcej planecie / Planet Hulk (2010) Multi.AC3.1080p.BluRay.x264-rahab / POLSKI DUBBING

Dodał: CrashRed 18 Grudzień 2011 17:28


Hulk na obcej planecie / Planet Hulk (2010) Multi.AC3.1080p.BluRay.x264-rahab / POLSKI DUBBING

Hulk na obcej planecie / Planet Hulk (2010) Multi.AC3.1080p.BluRay.x264-rahab / POLSKI DUBBING

Hulk na obcej planecie / Planet Hulk (2010) Multi.AC3.1080p.BluRay.x264-rahab / POLSKI DUBBING
http://www.filmweb.pl/film/Hulk+na+obcej+planecie-2010-547668

czas trwania: 1 godz. 21 min.
gatunek: Animacja, Akcja, Sci-Fi
premiera: 2 lutego 2010 (świat) 2010-02-02
reżyseria: Sam Liu
scenariusz: Greg Johnson

Wysłany w kosmos przez najpotężniejszych ziemskich superbohaterów, Niesamowity Hulk staje się niechcianym bohaterem, po tym jak jego statek rozbija się na odległej planecie. Miliony lat świetlnych od Ziemi Czerwony Król żelazną pięścią rządzi planetą Sakaar. Z początku Hulk staje się niewolnikiem i zostaje zmuszony do walk na arenie jako gladiator. Podczas serii walk z okrutnymi przeciwnikami Hulk nawiązuje więź z czterema przerażającymi wojownikami - Miekiem, Korgiem, Hiroimem i Elloe. To
właśnie z ich pomocą zielony gigant wypowie wojnę despotycznemu władcy. Jednak wraz z rozwojem walk okazuje się, że kreowany na zbawiciela Sakaar, Hulk, może okazać się przepowiedzianym w legendach niszczycielem planety


General
Format : Matroska
Format version : Version 2
File size : 4.36 GiB
Duration : 1h 21mn
Overall bit rate : 7 688 Kbps
Video
Format/Info : Advanced Video Codec
Format profile : High@L4.1
Duration : 1h 21mn
Bit rate : 6 545 Kbps
Width : 1 920 pixels
Height : 1 080 pixels
Display aspect ratio : 16:9
Frame rate : 23.976 fps
Stream size : 3.62 GiB (83%)
Writing library : x264 core 116 r2074 2641b9e
Language : English
Audio #1
Format : AC-3
Duration : 1h 21mn
Bit rate mode : Constant
Bit rate : 384 Kbps
Channel(s) : 6 channels
Compression mode : Lossy
Stream size : 223 MiB (5%)
Language : Polish
Audio #2
Format : AC-3
Duration : 1h 21mn
Bit rate mode : Constant
Bit rate : 384 Kbps
Channel(s) : 6 channels
Language : German
Audio #3
Format : AC-3
Duration : 1h 21mn
Bit rate mode : Constant
Bit rate : 384 Kbps
Channel(s) : 6 channels
Language : English



Hulk na obcej planecie / Planet Hulk (2010) Multi.AC3.1080p.BluRay.x264-rahab / POLSKI DUBBING
Uwaga! Linki nie zakodowane tylko dla zarejestrowanych użytkowników!

Nie masz konta? Zarejestruj się za darmo!
----------------
Links are not encoded only for registered users only! Plese login or register!



Użytkownik VIP

CrashRedVIP

#1 | Dodany: 18 Grudzień 2011 17:28

ok
Użytkownik VIP

Peter101Użytkownik

#2 | Dodany: 19 Grudzień 2011 00:58

Fajnie by było jkbyś mógł wrzucić w wersji 700MB :)

Informacje

Jeżeli chcesz skomentować artykuł musisz być zarejestrowany na stronie.