EXSite.pl - Portal ze wszystkim Mamy tutaj wszystko

NIE MASZ JESZCZE KONTA? ZAREJESTRUJ SIĘ ZA DARMO!   
Przypomnij hasło X

Legendy sowiego królestwa: Strażnicy Ga'Hoole / Legend of the Guardians: The Owls of Ga'Hoole (2010) MULTI.1080p.BluRay.AC3.x264-rahab / POLSKI DUBBIN

Dodał: CrashRed 18 Grudzień 2011 18:00


Legendy sowiego królestwa: Strażnicy Ga'Hoole / Legend of the Guardians: The Owls of Ga'Hoole (2010) MULTI.1080p.BluRay.AC3.x264-rahab / POLSKI DUBBIN
A
Legendy sowiego królestwa: Strażnicy Ga'Hoole / Legend of the Guardians: The Owls of Ga'Hoole (2010) MULTI.1080p.BluRay.AC3.x264-rahab / POLSKI DUBBIN

Legendy sowiego królestwa: Strażnicy Ga'Hoole / Legend of the Guardians: The Owls of Ga'Hoole (2010) MULTI.1080p.BluRay.AC3.x264-rahab / POLSKI DUBBIN
http://www.filmweb.pl/film/Legendy+sowiego+kr%C3%B3lestwa+Stra%C5%BCnicy+Ga%27Hoole-2010-479701

czas trwania: 1 godz. 37 min.
gatunek: Animacja, Przygodowy
USA, Australia
premiera: 14 października 2010 (Polska) 2010-10-14 22 września 2010 (świat) 2010-09-22
reżyseria: Zack Snyder
scenariusz: Emil Stern, John Orloff

Soren, to młoda sowa zachwycona opowieściami ojca o Strażnikach Ga'Hoole, którzy stoczyli straszliwą wojnę w obronie całego gatunku sów. Marzy o tym, aby pewnego dnia dołączyć do grona tych mitycznych wojowników. Starszy brat Sorena, Kludd, szydzi sobie z jego marze?. Wszystko zmienia się, kiedy obaj wypadają z domku na drzewie prosto w łapy wrogów, których do tej pory znali tylko z opowiada?. Jedyną nadzieją na ocalenie królestwa sów jest odnalezienia Wielkiego Drzewa, domu legendarnych Strażników Ga'Hoole.


General
Format : Matroska
File size : 4.36 GiB
Duration : 1h 36mn
Overall bit rate : 6 450 Kbps
Video
Format/Info : Advanced Video Codec
Format profile : High@L4.1
Duration : 1h 36mn
Bit rate mode : Variable
Bit rate : 5 298 Kbps
Maximum bit rate : 14.0 Mbps
Width : 1 920 pixels
Height : 816 pixels
Display aspect ratio : 2.35:1
Frame rate : 23.976 fps
Stream size : 3.50 GiB (80%)
Writing library : x264 core 115 r1995 c1e60b9
Language : English
Audio #1
Format : AC-3
Duration : 1h 36mn
Bit rate : 384 Kbps
Channel(s) : 6 channels
Stream size : 266 MiB (6%)
Language : Polish
Audio #2
Format : AC-3
Duration : 1h 36mn
Bit rate mode : Constant
Bit rate : 384 Kbps
Channel(s) : 6 channels
Stream size : 266 MiB (6%)
Language : German
Audio #3
Format : AC-3
Duration : 1h 36mn
Bit rate mode : Constant
Bit rate : 384 Kbps
Channel(s) : 6 channels
Stream size : 266 MiB (6%)
Language : English



Legendy sowiego królestwa: Strażnicy Ga'Hoole / Legend of the Guardians: The Owls of Ga'Hoole (2010) MULTI.1080p.BluRay.AC3.x264-rahab / POLSKI DUBBIN
Uwaga! Linki nie zakodowane tylko dla zarejestrowanych użytkowników!

Nie masz konta? Zarejestruj się za darmo!
----------------
Links are not encoded only for registered users only! Plese login or register!



Użytkownik VIP

CrashRedVIP

#1 | Dodany: 18 Grudzień 2011 18:04

ok
Użytkownik VIP

UploadereQVIP

#2 | Dodany: 29 Marzec 2013 21:19

Legendy sowiego królestwa / Legend of the Guardians (2010)
DubPL.720p.BluRay.x264 | Dubbing PL

Dane techniczne :
Format : Matroska
File size : 3.60 GiB
Duration : 1h 36mn
Overall bit rate : 5 319 Kbps

Video
ID : 1
Format : AVC
Bit rate : 4 951 Kbps
Width : 1 280 pixels
Height : 544 pixels
Display aspect ratio : 2.35:1
Frame rate : 23.976 fps

Audio
ID : 2
Format : AC-3
Bit rate : 384 Kbps
Channel(s) : 6 channels
Language : Polish


DOWNLOAD LiNKS - 1PART=1024MB:
10% danych naprawczych || Można pobierać na przemian

http://catshare.net/aEbklFu0ysYE5h8w/Sowy.2010.DubPL.720p.BluRay.x264.part1.rar
http://catshare.net/NtYxgcGVuis1fBNy/Sowy.2010.DubPL.720p.BluRay.x264.part2.rar
http://catshare.net/YRi9YCkQLucpv0rz/Sowy.2010.DubPL.720p.BluRay.x264.part3.rar
http://catshare.net/hm08miUqpWmidKSV/Sowy.2010.DubPL.720p.BluRay.x264.part4.rar

http://turbobit.net/7kfcg2asy7pz/Sowy.2010.DubPL.720p.BluRay.x264.part1.rar.html
http://turbobit.net/cfc99wjyzse5/Sowy.2010.DubPL.720p.BluRay.x264.part2.rar.html
http://turbobit.net/k78bief1r74b/Sowy.2010.DubPL.720p.BluRay.x264.part3.rar.html
http://turbobit.net/np2ryibwf27z/Sowy.2010.DubPL.720p.BluRay.x264.part4.rar.html

http://rapidgator.net/file/81a4bd899511624a79b1fd202bdc60d4/Sowy.2010.DubPL.720p.BluRay.x264.part1.rar.html
http://rapidgator.net/file/10b1e16aa699d6ce303f0c51d1667a48/Sowy.2010.DubPL.720p.BluRay.x264.part2.rar.html
http://rapidgator.net/file/8e009aabc372e85e5c3962e111ea7493/Sowy.2010.DubPL.720p.BluRay.x264.part3.rar.html
http://rapidgator.net/file/28a53a410d517c3377b648cbbdebc1cd/Sowy.2010.DubPL.720p.BluRay.x264.part4.rar.html


Hasło :
brak

Informacje

Jeżeli chcesz skomentować artykuł musisz być zarejestrowany na stronie.