EXSite.pl - Portal ze wszystkim Mamy tutaj wszystko

NIE MASZ JESZCZE KONTA? ZAREJESTRUJ SIĘ ZA DARMO!   
Przypomnij hasło X

Rango (2011) MULTI.1080p.BluRay.AC3.x264-rahab Extended.Cut / POLSKI DUBBING

Dodał: CrashRed 18 Grudzień 2011 18:29


Rango (2011) MULTI.1080p.BluRay.AC3.x264-rahab Extended.Cut / POLSKI DUBBING

Rango (2011) MULTI.1080p.BluRay.AC3.x264-rahab Extended.Cut / POLSKI DUBBING

Rango (2011) MULTI.1080p.BluRay.AC3.x264-rahab Extended.Cut / POLSKI DUBBING
http://www.filmweb.pl/film/Rango-2011-490479

czas trwania: 1 godz. 47 min.
gatunek: Animacja, Przygodowy, Akcja
premiera: 4 marca 2011 (Polska) 2011-03-04 14 lutego 2011 (świat) 2011-02-14
reżyseria: Gore Verbinski
scenariusz: John Logan

Kameleon Rango przechodzi swój trudny okres. Jego głównym zajęciem jest tułaczka po pustyni Mojave. Dochodzi on do pewnego miasteczka opanowanego przez bandytów i kryminalistów. Wkrótce postanawia zostać stróżem prawa w owej mieścinie, aby zwalczać złych, a pomagać dobrym.


General
Format : Matroska
File size : 4.36 GiB
Duration : 1h 51mn
Overall bit rate : 5 583 Kbps
Video
Format/Info : Advanced Video Codec
Format profile : High@L4.1
Duration : 1h 51mn
Bit rate : 4 430 Kbps
Width : 1 920 pixels
Height : 800 pixels
Display aspect ratio : 2.40:1
Frame rate : 23.976 fps
Stream size : 3.37 GiB (77%)
Writing library : x264 core 115 r1995 c1e60b9
Language : German
Audio #1
Format : AC-3
Duration : 1h 51mn
Bit rate : 384 Kbps
Channel(s) : 6 channels
Stream size : 307 MiB (7%)
Language : Polish
Audio #2
Format : AC-3
Duration : 1h 51mn
Bit rate mode : Constant
Bit rate : 384 Kbps
Channel(s) : 6 channels
Stream size : 307 MiB (7%)
Language : German
Audio #3
Format : AC-3
Duration : 1h 51mn
Bit rate mode : Constant
Bit rate : 384 Kbps
Channel(s) : 6 channels
Stream size : 307 MiB (7%)
Language : English



Rango (2011) MULTI.1080p.BluRay.AC3.x264-rahab Extended.Cut / POLSKI DUBBING
Uwaga! Linki nie zakodowane tylko dla zarejestrowanych użytkowników!

Nie masz konta? Zarejestruj się za darmo!
----------------
Links are not encoded only for registered users only! Plese login or register!



Użytkownik VIP

CrashRedVIP

#1 | Dodany: 18 Grudzień 2011 18:29

ok
Użytkownik VIP

JPMEN93Użytkownik

#2 | Dodany: 19 Grudzień 2011 16:41

REUPLAD 6 LINK
Użytkownik VIP

CrashRedVIP

#3 | Dodany: 19 Grudzień 2011 16:59

jak ktos nie da rady dociągnąć przed skasowaniem wszystkich partow na wszystkich serwerach niech napisze PW podeśle linki nieudostępniane wiec da rade dociągnąć do konca, oczywiscei piszcie w rozsadnym przedziale czasowym , zebym nie dostap PW za 2 miesiace ze ktos chce linki :P.
Użytkownik VIP

igor-gdyniaUżytkownik

#4 | Dodany: 20 Grudzień 2011 02:18

Cały filesonic leży!!!!
Pozdrawiam was z kraju coffeshopów, wiatraków, makowców i drewnianych bucików ;-)
Użytkownik VIP

Andre53BUżytkownik

#5 | Dodany: 20 Grudzień 2011 10:33

Leży wszystko
Użytkownik VIP

CrashRedVIP

#6 | Dodany: 20 Grudzień 2011 13:55

niestety nic nie poradze ta bajka jest ostro na czarnych listach

Informacje

Jeżeli chcesz skomentować artykuł musisz być zarejestrowany na stronie.