EXSite.pl - Portal ze wszystkim Mamy tutaj wszystko

NIE MASZ JESZCZE KONTA? ZAREJESTRUJ SIĘ ZA DARMO!   
Przypomnij hasło X

Matki w mackach Marsa / Mars Needs Moms (2011) MULTI.1080p.BluRay.AC3.x264-raha / POLSKI DUBBING

Dodał: CrashRed 18 Grudzień 2011 18:51


Matki w mackach Marsa / Mars Needs Moms (2011) MULTI.1080p.BluRay.AC3.x264-raha / POLSKI DUBBING

Matki w mackach Marsa / Mars Needs Moms (2011) MULTI.1080p.BluRay.AC3.x264-raha / POLSKI DUBBING

Matki w mackach Marsa / Mars Needs Moms (2011) MULTI.1080p.BluRay.AC3.x264-raha / POLSKI DUBBING
http://www.filmweb.pl/film/Matki+w+mackach+Marsa-2011-500235

czas trwania: 1 godz. 28 min.
gatunek: Animacja, Familijny, Komedia, Przygodowy
premiera: 11 marca 2011 (Polska) 2011-03-11 9 marca 2011 (świat) 2011-03-09
reżyseria: Simon Wells
scenariusz: Simon Wells, Wendy Wells

Wynieś śmieci! Zjedz brokuły! - po cóż innego potrzebna jest mama, niż po to, żeby stale kazać nam robić coś, na co wcale nie mamy ochoty?! Dziewięcioletni Milo zmienia zdanie na ten temat z chwilą, gdy jego mamę uprowadzają Marsjanie, którzy chcą wykraść jej matczyne instynkty i przekazać je nieporadnym marsja?skim nia?kom. Milo ukrywa się na statku kosmicznym zmierzającym w kierunku Marsa. Jego misja ratownicza wymaga przejęcia kontroli nad całą planetą. W tym brawurowym przedsięwzięciu pomogą mu ekscentryczny ziemianin Gribble i marsja?ska rebeliantka Ki.


General
Format : Matroska
Format version : Version 2
File size : 4.36 GiB
Duration : 1h 28mn
Overall bit rate : 7 093 Kbps
Video
Format/Info : Advanced Video Codec
Format profile : High@L4.1
Duration : 1h 28mn
Bit rate : 5 938 Kbps
Width : 1 920 pixels
Height : 800 pixels
Display aspect ratio : 2.40:1
Frame rate : 23.976 fps
Stream size : 3.57 GiB (82%)
Writing library : x264 core 116 r2074 2641b9e
Language : English
Audio #1
Format : AC-3
Duration : 1h 28mn
Bit rate mode : Constant
Bit rate : 384 Kbps
Channel(s) : 6 channels
Stream size : 242 MiB (5%)
Language : Polish
Audio #2
Format : AC-3
Duration : 1h 28mn
Bit rate mode : Constant
Bit rate : 384 Kbps
Channel(s) : 6 channels
Stream size : 242 MiB (5%)
Language : German
Audio #3
Format : AC-3
Duration : 1h 28mn
Bit rate mode : Constant
Bit rate : 384 Kbps
Channel(s) : 6 channels
Stream size : 242 MiB (5%)
Language : English



Matki w mackach Marsa / Mars Needs Moms (2011) MULTI.1080p.BluRay.AC3.x264-raha / POLSKI DUBBING
Uwaga! Linki nie zakodowane tylko dla zarejestrowanych użytkowników!

Nie masz konta? Zarejestruj się za darmo!
----------------
Links are not encoded only for registered users only! Plese login or register!



Użytkownik VIP

CrashRedVIP

#1 | Dodany: 18 Grudzień 2011 18:51

ok
Użytkownik VIP

IreniaUżytkownik

#2 | Dodany: 19 Grudzień 2011 18:54

thx
Użytkownik VIP

Jarek123aUżytkownik

#3 | Dodany: 7 Luty 2015 20:00

Proszę o wznowienie tej wersji (1080p).

Informacje

Jeżeli chcesz skomentować artykuł musisz być zarejestrowany na stronie.