EXSite.pl - Portal ze wszystkim Mamy tutaj wszystko

NIE MASZ JESZCZE KONTA? ZAREJESTRUJ SIĘ ZA DARMO!   
Przypomnij hasło X

Gnomeo i Julia / Gnomeo and Juliet (2011) MULTI.1080p.BluRay.AC3.x264-rahab / POLSKI DUBBING

Dodał: CrashRed 18 Grudzień 2011 19:09


Gnomeo i Julia / Gnomeo and Juliet (2011) MULTI.1080p.BluRay.AC3.x264-rahab / POLSKI DUBBING

Gnomeo i Julia / Gnomeo and Juliet (2011) MULTI.1080p.BluRay.AC3.x264-rahab / POLSKI DUBBING

Gnomeo i Julia / Gnomeo and Juliet (2011) MULTI.1080p.BluRay.AC3.x264-rahab / POLSKI DUBBING
http://www.filmweb.pl/film/Gnomeo+i+Julia-2011-121967

czas trwania: 1 godz. 24 min.
gatunek: Animacja, Familijny, Fantasy, Komedia rom.
Wielka Brytania, USA
premiera: 6 maja 2011 (Polska) 2011-05-06 23 stycznia 2011 (świat) 2011-01-23
reżyseria: Kelly Asbury
scenariusz: Andy Riley, Kevin Cecil

W jarmarcznej scenerii różowych faflamingów, marmurowych fontann i plastikowych palemek spotykają się Gnomeo i Julia i zakochują się w sobie po czubki uszu, a raczej krasnalich czapek. Jednak na drodze ich uczucia staje odwieczny konflikt – wywodzą się z wrogich sobie domostw- Montekich i Kapuletów. Czy miłość pokona wszelkie przeszkody?


General
Format : Matroska
Format version : Version 2
File size : 4.36 GiB
Duration : 1h 23mn
Overall bit rate : 7 444 Kbps
Video
Format/Info : Advanced Video Codec
Format profile : High@L4.1
Duration : 1h 23mn
Bit rate : 6 295 Kbps
Width : 1 920 pixels
Height : 1 080 pixels
Display aspect ratio : 16:9
Frame rate : 23.976 fps
Stream size : 3.60 GiB (83%)
Writing library : x264 core 116 r2074 2641b9e
Language : English
Audio #1
Format : AC-3
Duration : 1h 23mn
Bit rate mode : Constant
Bit rate : 384 Kbps
Channel(s) : 6 channels
Stream size : 230 MiB (5%)
Language : Polish
Audio #2
Format : AC-3
Duration : 1h 23mn
Bit rate mode : Constant
Bit rate : 384 Kbps
Channel(s) : 6 channels
Stream size : 230 MiB (5%)
Language : German
Audio #3
Format : AC-3
Duration : 1h 23mn
Bit rate mode : Constant
Bit rate : 384 Kbps
Channel(s) : 6 channels
Stream size : 230 MiB (5%)
Language : English



Gnomeo i Julia / Gnomeo and Juliet (2011) MULTI.1080p.BluRay.AC3.x264-rahab / POLSKI DUBBING
Uwaga! Linki nie zakodowane tylko dla zarejestrowanych użytkowników!

Nie masz konta? Zarejestruj się za darmo!
----------------
Links are not encoded only for registered users only! Plese login or register!



Użytkownik VIP

CrashRedVIP

#1 | Dodany: 18 Grudzień 2011 19:10

Gnomeo i Julia / Gnomeo and Juliet (2011) PLDUB.720p.BluRay.DTS.x264-B89 / POLSKI DUBBING

Release: Gnomeo.and.Juliet.2011.PLDUB.720p.BluRay.DTS.x264-B89
Format : Matroska at 8.049 Kb/s
Length : 4,71 GB for 1h 23 min. 51s 34ms
Video #0 : AVC at 6.328 Kb/s
Aspect : 1280 x 688 (1.860) at 23.976 fps
Audio #0 : DTS at 1.561 Kb/s / 1.510 Kb/s
Infos : 6 kanałów, 48,0 KHz
Language : pl
Source:
V: BLOW || A: Bluray.POL.AVC.DTS.HD.MA.5.1.DVDSEED-Gogeta [thx!]

Uwaga! Linki nie zakodowane tylko dla zarejestrowanych użytkowników!

Nie masz konta? Zarejestruj się za darmo!
----------------
Links are not encoded only for registered users only! Plese login or register!









Gnomeo i Julia / Gnomeo and Juliet (2011) PLDUB.1080p.BluRay.DTS.x264-B89 / POLSKI DUBBING

Release: Gnomeo.and.Juliet.2011.PLDUB.1080p.BluRay.DTS.x264-B89
Format : Matroska at 9.913 Kb/s
Length : 5,81 GB for 1h 23 min. 51s 26ms
Video #0 : AVC at 8.155 Kb/s
Aspect : 1920 x 1040 (1.846) at 23.976 fps
Audio #0 : DTS at 1.561 Kb/s / 1.510 Kb/s
Infos : 6 kanałów, 48,0 KHz
Language : pl
Source:
V: BLOW || A: Bluray.POL.AVC.DTS.HD.MA.5.1.DVDSEED-Gogeta [thx!]

Uwaga! Linki nie zakodowane tylko dla zarejestrowanych użytkowników!

Nie masz konta? Zarejestruj się za darmo!
----------------
Links are not encoded only for registered users only! Plese login or register!
Użytkownik VIP

jacuzielUżytkownik

#2 | Dodany: 18 Grudzień 2011 20:47

Prośba o info: czy te mkv są ze skompresowanym nagłówkiem ?
Pytam bo niestety mój TV tego nie łyka a jeśli chodzi o lektory PL i dubbing to jest takich sporo...
Użytkownik VIP

CrashRedVIP

#3 | Dodany: 18 Grudzień 2011 21:07

jacuziel,
hmmm, sciagnij program mkv merge, film którzy ci nie chodzi na odtwarzaczu czy telewizorze przepuść przez ten program trwa to chwile a daje dosyć duza grwarancje ze film bedzie chodzil . Duzo ludzi tak ma i to jest na to sposob.
Użytkownik VIP

hydra321Użytkownik

#4 | Dodany: 30 Grudzień 2011 10:40

Gnomeo I Julia / Gnomeo and Juliet (2011) PL.DUB.BRRip.MD.XviD.AC3



Uwaga! Linki nie zakodowane tylko dla zarejestrowanych użytkowników!

Nie masz konta? Zarejestruj się za darmo!
----------------
Links are not encoded only for registered users only! Plese login or register!

Informacje

Jeżeli chcesz skomentować artykuł musisz być zarejestrowany na stronie.