EXSite.pl - Portal ze wszystkim Mamy tutaj wszystko

NIE MASZ JESZCZE KONTA? ZAREJESTRUJ SIĘ ZA DARMO!   
Przypomnij hasło X

Shrek 1-4 (2001-2010) MULTI.1080p.BluRay.x264-rahab / POLSKI DUBBING

Dodał: CrashRed 14 Styczeń 2012 15:22


Shrek (2001) MULTI.1080p.BluRay.x264-rahab / POLSKI DUBBING

Shrek 1-4 (2001-2010) MULTI.1080p.BluRay.x264-rahab / POLSKI DUBBING

Shrek 1-4 (2001-2010) MULTI.1080p.BluRay.x264-rahab / POLSKI DUBBING
http://www.filmweb.pl/Shrek

czas trwania: 1 godz. 30 min.
gatunek: Animacja, Familijny, Komedia
premiera: 13 lipca 2001 (Polska) 2001-07-13 22 kwietnia 2001 (świat) 2001-04-22
produkcja: USA
reżyseria: Andrew Adamson, Vicky Jenson
scenariusz: Joe Stillman, Roger S.H. Schulman

W bagnie żył olbrzym Shrek, którego cenna samotność została nagle zakłócona inwazją dokuczliwych postaci z bajek. ślepe myszki buszują w zapasach olbrzyma, zły wilk sypia w jego łóżku, a trzy świnki buszują po jego samotni. Wszystkie te postaci zostały wypędzone ze swego królestwa przez złego Lorda Farquaada. Zdecydowany ocalić ich dom - nie mówiąc już o swoim - Shrek porozumiewa się z Farquaadem i wyrusza na ratunek pięknej księżniczce Fionie, która ma zostać żoną Lorda. W misji towarzyszy mu
przemądrzały Osioł, który zrobi dla Shreka wszystko z wyjątkiem... przestania mielenia ozorem. Ocalenie księżniczki przed ziejącym ogniem smokiem okazuje się być najmniejszym problemem przyjaciół, kiedy to zostaje odkryty głęboko skrywany, mroczny sekret Fiony


General
Format : Matroska
File size : 4.36 GiB
Duration : 1h 30mn
Overall bit rate : 6 932 Kbps
Video
Format/Info : Advanced Video Codec
Format profile : High@L4.1
Duration : 1h 30mn
Bit rate : 5 780 Kbps
Width : 1 920 pixels
Height : 1 080 pixels
Display aspect ratio : 16:9
Frame rate : 23.976 fps
Stream size : 3.55 GiB (81%)
Title : Shrek.2001.PL.DE.EN.AC3.1080p.BluRay.x264-rahab
Writing library : x264 core 115 r1995 c1e60b9
Language : English
Audio #1
Format : AC-3
Duration : 1h 30mn
Bit rate mode : Constant
Bit rate : 384 Kbps
Channel(s) : 6 channels
Stream size : 247 MiB (6%)
Language : Polish
Audio #2
Format : AC-3
Duration : 1h 30mn
Bit rate mode : Constant
Bit rate : 384 Kbps
Channel(s) : 6 channels
Compression mode : Lossy
Stream size : 247 MiB (6%)
Language : German
Audio #3
Format : AC-3
Duration : 1h 30mn
Bit rate mode : Constant
Bit rate : 384 Kbps
Channel(s) : 6 channels
Stream size : 247 MiB (6%)
Language : English



Shrek 1-4 (2001-2010) MULTI.1080p.BluRay.x264-rahab / POLSKI DUBBING
Uwaga! Linki nie zakodowane tylko dla zarejestrowanych użytkowników!

Nie masz konta? Zarejestruj się za darmo!
----------------
Links are not encoded only for registered users only! Plese login or register!


HASŁO
Shrek 1-4 (2001-2010) MULTI.1080p.BluRay.x264-rahab / POLSKI DUBBING
Uwaga! Linki nie zakodowane tylko dla zarejestrowanych użytkowników!

Nie masz konta? Zarejestruj się za darmo!
----------------
Links are not encoded only for registered users only! Plese login or register!








Shrek 2 (2004) MULTI.1080p.BluRay.x264-rahab / POLSKI DUBBING

Shrek 1-4 (2001-2010) MULTI.1080p.BluRay.x264-rahab / POLSKI DUBBING

http://www.filmweb.pl/2.Shrek

czas trwania: 1 godz. 32 min.
gatunek: Animacja, Familijny, Komedia
premiera: 2 lipca 2004 (Polska) 2004-07-02 15 maja 2004 (świat) 2004-05-15
produkcja: USA
reżyseria: Andrew Adamson, Kelly Asbury
scenariusz: David N. Weiss, Joe Stillman

Po powrocie z miesiąca miodowego Shrek i Fiona postanawiają odwiedzić rodziców księżniczki, do których dotarła jedynie wiadomość o ślubie ich córki z prawdziwą miłością jej życia. Młoda para rusza więc do królestwa Far Far Away. Problem jednak w tym, że rodzice Fiony w ogóle nie zdawali sobie sprawy z ciążącej na niej klątwy. W związku z tym rodzice księżniczki byli pewni, iż poślubiła ona kogoś z wyższych sfer, kawalera pokroju Lorda Farquaada - władcy rządzącego zasobnym pa?stwem. Jakież więc
jest zdziwienie, kiedy ich zięć okazuje się ważącym ponad 300 kilogramów zielonym ogrem nie przywiązującym wagi do higieny, któremu w dodatku towarzyszy gadający osioł. Szokiem jest również wiadomość, że ich ukochana córka nocą przechodzi straszną metamorfozę. Co gorsza, w tajemniczych okolicznościach ginie siostra Fiony. Przed ogrem i jego kompanią stoi nowe wyzwanie.

General
Format : Matroska
File size : 4.36 GiB
Duration : 1h 32mn
Overall bit rate : 6 755 Kbps
Video
Format/Info : Advanced Video Codec
Format profile : High@L4.1
Duration : 1h 32mn
Bit rate : 5 607 Kbps
Width : 1 920 pixels
Height : 1 080 pixels
Display aspect ratio : 16:9
Frame rate : 23.976 fps
Stream size : 3.53 GiB (81%)
Title : Shrek.2.2004.PL.DE.EN.AC3.1080p.BluRay.x264-rahab
Writing library : x264 core 115 r1995 c1e60b9
Language : English
Audio #1
Format : AC-3
Duration : 1h 32mn
Bit rate mode : Constant
Bit rate : 384 Kbps
Channel(s) : 6 channels
Stream size : 254 MiB (6%)
Language : Polish
Audio #2
Format : AC-3
Duration : 1h 32mn
Bit rate mode : Constant
Bit rate : 384 Kbps
Channel(s) : 6 channels
Stream size : 254 MiB (6%)
Language : German
Audio #3
Format : AC-3
Duration : 1h 32mn
Bit rate mode : Constant
Bit rate : 384 Kbps
Channel(s) : 6 channels
Stream size : 254 MiB (6%)
Language : English

Uwaga! Linki nie zakodowane tylko dla zarejestrowanych użytkowników!

Nie masz konta? Zarejestruj się za darmo!
----------------
Links are not encoded only for registered users only! Plese login or register!


HASŁO
Shrek 1-4 (2001-2010) MULTI.1080p.BluRay.x264-rahab / POLSKI DUBBING
Uwaga! Linki nie zakodowane tylko dla zarejestrowanych użytkowników!

Nie masz konta? Zarejestruj się za darmo!
----------------
Links are not encoded only for registered users only! Plese login or register!




cdn...

Użytkownik VIP

CrashRedVIP

#1 | Dodany: 23 Grudzień 2011 16:04

ok
Użytkownik VIP

offiUżytkownik

#2 | Dodany: 11 Styczeń 2012 18:13

i gdzie ten cdn....
Użytkownik VIP

darthqinkUżytkownik

#3 | Dodany: 12 Styczeń 2012 22:54

kiedy będzie reszta części??

Informacje

Jeżeli chcesz skomentować artykuł musisz być zarejestrowany na stronie.