EXSite.pl - Portal ze wszystkim Mamy tutaj wszystko

NIE MASZ JESZCZE KONTA? ZAREJESTRUJ SIĘ ZA DARMO!   
Przypomnij hasło X

Madagaskar 1-2 / Madagascar 1-2 (2005-2008) MULTI.1080p.BluRay.x264-rahab / POLSKI DUBBING

Dodał: CrashRed 8 Styczeń 2012 15:31


Madagaskar / Madagascar (2005) MULTI.1080p.BluRay.x264-rahab / POLSKI DUBBING

Madagaskar 1-2 / Madagascar 1-2 (2005-2008) MULTI.1080p.BluRay.x264-rahab / POLSKI DUBBING

Madagaskar 1-2 / Madagascar 1-2 (2005-2008) MULTI.1080p.BluRay.x264-rahab / POLSKI DUBBING
http://www.filmweb.pl/Madagaskar

czas trwania: 1 godz. 26 min.
gatunek: Animacja, Familijny
premiera: 1 lipca 2005 (Polska) 2005-07-01 25 maja 2005 (świat) 2005-05-25
produkcja: USA
reżyseria: Tom McGrath, Eric Darnell
scenariusz: Eric Darnell, Tom McGrath

Film twórców "Shreka" i "Shreka 2" opowiada o paczce zgranych przyjaciół: lwie - Alexie (gwieżdzie Zoo na Manhatannie), zebrze - Marty'm, hipopotamicy - Glorii i żyrafie - Melmanie (wiecznie chorym i przewrażliwionym na punkcie swego zdrowia). Ich przygody rozpoczynają się za sprawą Marty'ego, który po spotkaniu z uciekającymi z Zoo pingwinami, również postanawia wydostać się z ogrodu i odnaleźć ową mityczną dla niego "Dzicz". Sam uciekając z ogrodu pociąga za sobą przyjaciół, którzy chcąc go
ratować, wpadają razem w niezłe tarapaty. W rezultacie władze Ogrodu Zoologicznego postanawiając wysłać uciekinierów spowrotem do ich naturalnego środowiska - Afryki. Po drodze nasi bohaterowie wypadają ze statku i dryfując wszyscy odnajdują się u brzegów egzotycznej wyspy... Tu poznają społecze?stwo śmiesznych lemurów pod wodzą zakręconego króla. Wszystko jednak komplikuje fakt, że Alex wcale nie jest zachwycony rozpoczęciem życia z dala od wygód zoo i dodatkowo budzą się w nim prawdziwe instynkty drapieżcy... Film ubarwiony wieloma śmiesznymi gagami i tekstami. Również muzyka jest doskonałym uzupełnieniem fabuły...


General
Format : Matroska
File size : 4.35 GiB
Duration : 1h 25mn
Overall bit rate : 7 239 Kbps
Video
Format/Info : Advanced Video Codec
Format profile : High@L4.1
Duration : 1h 25mn
Bit rate : 6 112 Kbps
Maximum bit rate : 15.0 Mbps
Width : 1 920 pixels
Height : 1 080 pixels
Display aspect ratio : 16:9
Frame rate : 23.976 fps
Stream size : 3.57 GiB (82%)
Title : Madagascar.2005.PL.DE.EN.AC3.1080p.BluRay.x264-rahab
Writing library : x264 core 115 r1995 c1e60b9
Language : English
Audio #1
Format : AC-3
Duration : 1h 25mn
Bit rate mode : Constant
Bit rate : 384 Kbps
Channel(s) : 6 channels
Stream size : 236 MiB (5%)
Language : Polish
Audio #2
Format : AC-3
Duration : 1h 25mn
Bit rate mode : Constant
Bit rate : 384 Kbps
Channel(s) : 6 channels
Stream size : 236 MiB (5%)
Language : German
Audio #3
Format : AC-3
Duration : 1h 25mn
Bit rate mode : Constant
Bit rate : 384 Kbps
Channel(s) : 6 channels
Stream size : 236 MiB (5%)
Language : English



Madagaskar 1-2 / Madagascar 1-2 (2005-2008) MULTI.1080p.BluRay.x264-rahab / POLSKI DUBBING
Uwaga! Linki nie zakodowane tylko dla zarejestrowanych użytkowników!

Nie masz konta? Zarejestruj się za darmo!
----------------
Links are not encoded only for registered users only! Plese login or register!



Madagaskar 1-2 / Madagascar 1-2 (2005-2008) MULTI.1080p.BluRay.x264-rahab / POLSKI DUBBING
Uwaga! Linki nie zakodowane tylko dla zarejestrowanych użytkowników!

Nie masz konta? Zarejestruj się za darmo!
----------------
Links are not encoded only for registered users only! Plese login or register!







Madagaskar 2 / Madagascar: Escape 2 Africa (2008) MULTI.1080p.BluRay.x264-rahab / POLSKI DUBBING

Madagaskar 1-2 / Madagascar 1-2 (2005-2008) MULTI.1080p.BluRay.x264-rahab / POLSKI DUBBING

http://www.filmweb.pl/film/Madagaskar+2-2008-255725

czas trwania: 1 godz. 29 min.
gatunek: Animacja, Familijny, Komedia, Przygodowy
premiera: 1 stycznia 2009 (Polska) 2009-01-01 30 października 2008 (świat) 2008-10-30
produkcja: USA
reżyseria: Eric Darnell, Tom McGrath
scenariusz: Tom McGrath, Eric Darnell

W długo oczekiwanym sequelu "Madagaskaru" - kontynuacji znakomitego przeboju kina familijnego z 2005 roku - Lew Alex , Zebra Marty, Żyrafa Melman, Hipopotamica Gloria, Król Julian Maurice, Pingwiny i Szympansy wyrzucone na odległy brzeg Madagaskaru snują nowy plan. W obliczu niesprzyjających okoliczności losu, mieszka?cy Manhattanu uknuli plan tak szalony, że może okazać się całkiem skuteczny. Z wojskową precyzją Pingwiny dokonały naprawy starego rozbitego samolotu - tak przynajmniej może się
wydawać na pierwszy rzut oka. Niedługo po starcie linii lotniczych Pingwin, z dość zaskakującą załogą na pokładzie, samolot zdołał się utrzymać w powietrzu na tyle długo, żeby przenieść naszych bohaterów do najdzikszego miejsca na ziemi – bezkresnych równin Afryki. W tym właśnie nieplanowanym ‘docelowym porcie lotniczym’ członkowie naszej wyrosłej w cieplarnianych warunkach nowojorskiego zoo załogi natrafiają po raz pierwszy na swoich dzikich współbraci - ich własne gatunki żyjące w naturalnych warunkach. Afryka wydaje się być wymarzonym miejscem na ziemi… ale czy lepszym niż ich własny dom w Central Parku?

General
Format : Matroska
File size : 4.35 GiB
Duration : 1h 29mn
Overall bit rate : 6 972 Kbps
Video
Format : AVC
Format profile : High@L4.1
Duration : 1h 29mn
Bit rate : 5 832 Kbps
Maximum bit rate : 15.0 Mbps
Width : 1 920 pixels
Height : 1 080 pixels
Display aspect ratio : 16:9
Frame rate : 23.976 fps
Stream size : 3.55 GiB (81%)
Writing library : x264 core 115 r1995 c1e60b9
Language : English
Audio #1
Format : AC-3
Duration : 1h 29mn
Bit rate : 384 Kbps
Channel(s) : 6 channels
Stream size : 246 MiB (6%)
Language : Polish
Audio #2
Format : AC-3
Duration : 1h 29mn
Bit rate mode : Constant
Bit rate : 384 Kbps
Channel(s) : 6 channels
Stream size : 246 MiB (6%)
Language : German
Audio #3
Format : AC-3
Duration : 1h 29mn
Bit rate mode : Constant
Bit rate : 384 Kbps
Channel(s) : 6 channels
Stream size : 246 MiB (6%)
Language : English

Uwaga! Linki nie zakodowane tylko dla zarejestrowanych użytkowników!

Nie masz konta? Zarejestruj się za darmo!
----------------
Links are not encoded only for registered users only! Plese login or register!



Madagaskar 1-2 / Madagascar 1-2 (2005-2008) MULTI.1080p.BluRay.x264-rahab / POLSKI DUBBING
Uwaga! Linki nie zakodowane tylko dla zarejestrowanych użytkowników!

Nie masz konta? Zarejestruj się za darmo!
----------------
Links are not encoded only for registered users only! Plese login or register!



Użytkownik VIP

CrashRedVIP

#1 | Dodany: 23 Grudzień 2011 16:35

ok
Użytkownik VIP

kvba_wUżytkownik

#2 | Dodany: 23 Grudzień 2011 23:47

A część 2 dałoby upnąć?
Użytkownik VIP

kpt.hunterUżytkownik

#3 | Dodany: 29 Grudzień 2011 11:01

ok
Użytkownik VIP

gckUżytkownik

#4 | Dodany: 31 Grudzień 2012 20:31

mógłbyś zrobic reupload wink
Użytkownik VIP

astyUżytkownik

#5 | Dodany: 14 Kwiecień 2013 15:57

Madagaskar / Madagascar (2005) PLDUB.1080p.BluRay.x264-HDBT | Dubbing PL

RUNTIME...........: 1h 25mn 58s
RELEASE SIZE......: 7.38 GB
VIDEO CODEC.......: x264, 2pass, L4.1
FRAMERATE.........: 23.976 fps
BITRATE...........: 11.7 Mbps
RESOLUTION........: 1920 x 1080
AUDIO 1...........: Polish AC-3 5.1 640 Kbps
SOURCE............: A: BR, V: EbP


Uwaga! Linki nie zakodowane tylko dla zarejestrowanych użytkowników!

Nie masz konta? Zarejestruj się za darmo!
----------------
Links are not encoded only for registered users only! Plese login or register!


Madagaskar 2 / Madagascar: Escape 2 Africa 2 (2008) PLDUB.1080p.BluRay.x264-HDBT | Dubbing PL

RUNTIME...........: 1h 29mn 24s
RELEASE SIZE......: 6.56 GB
VIDEO CODEC.......: x264, 2pass, L4.1
FRAMERATE.........: 23.976 fps
BITRATE...........: 9861 Kbps
RESOLUTION........: 1920 x 1080
AUDIO 1...........: Polish AC-3 5.1 640 Kbps
SOURCE............: A: BR, V: DON


Uwaga! Linki nie zakodowane tylko dla zarejestrowanych użytkowników!

Nie masz konta? Zarejestruj się za darmo!
----------------
Links are not encoded only for registered users only! Plese login or register!

Informacje

Jeżeli chcesz skomentować artykuł musisz być zarejestrowany na stronie.