EXSite.pl - Portal ze wszystkim Mamy tutaj wszystko

NIE MASZ JESZCZE KONTA? ZAREJESTRUJ SIĘ ZA DARMO!   
Przypomnij hasło X

Epoka lodowcowa 1-3 / Ice Age 1-3 (2002-2009) MULTI.1080p.BluRay.x264-rahab / POLSKI DUBBING

Dodał: CrashRed 14 Styczeń 2012 15:41


Epoka lodowcowa / Ice Age (2002) MULTI.1080p.BluRay.x264-rahab / POLSKI DUBBING

Epoka lodowcowa 1-3 / Ice Age 1-3  (2002-2009) MULTI.1080p.BluRay.x264-rahab / POLSKI DUBBING

Epoka lodowcowa 1-3 / Ice Age 1-3  (2002-2009) MULTI.1080p.BluRay.x264-rahab / POLSKI DUBBING
http://www.filmweb.pl/Epoka.Lodowcowa

czas trwania: 1 godz. 21 min.
gatunek: Animacja, Komedia, Przygodowy
premiera: 7 czerwca 2002 (Polska) 2002-06-07 12 marca 2002 (świat) 2002-03-12
produkcja: USA
reżyseria: Chris Wedge
scenariusz: Michael Berg, Michael J. Wilson

Akcja dzieje się podczas wielkiej migracji zwierząt 20000 lat temu. Jak się okazuje można się sprzeciwiać ogólnym trendom migracyjnym (tak jest w przypadku mamuta Manfreda - alias "Maniuś") albo można się spóźnić (leniwiec Sid). Tak poznaje się para zwierzaczków, która podczas swojej wędrówki ratuje ludzkie dziecko i postanawia się nim zaopiekować. Po jakimś czasie dołącza do nich tygrys szablozęby Diego, który próbuje im odebrać dziecko. Tak rozpoczyna się fantastyczna podróż tej trójki, która
zaczyna się ze sobą powoli zaprzyjaźniać. Podróż przypada na okres zlodowacenia lądów, a to jest dla nich dodatkową motywacją do pośpiechu i do wspólnego "radzenia" sobie z problemami


General
Format : Matroska
File size : 4.36 GiB
Duration : 1h 21mn
Overall bit rate : 7 682 Kbps
Video
Format/Info : Advanced Video Codec
Format profile : High@L4.1
Duration : 1h 21mn
Bit rate : 6 549 Kbps
Width : 1 920 pixels
Height : 1 080 pixels
Display aspect ratio : 16:9
Frame rate : 23.976 fps
Stream size : 3.62 GiB (83%)
Title : Ice.Age.2002.PL.DE.EN.AC3.1080p.BluRay.x264-rahab
Writing library : x264 core 115 r1995 c1e60b9
Language : English
Audio #1
Format : AC-3
Duration : 1h 21mn
Bit rate mode : Constant
Bit rate : 384 Kbps
Channel(s) : 6 channels
Stream size : 223 MiB (5%)
Language : Polish
Audio #2
Mode extension : CM (complete main)
Codec ID : A_AC3
Duration : 1h 21mn
Bit rate : 384 Kbps
Channel(s) : 6 channels
Stream size : 223 MiB (5%)
Language : German
Audio #3
Format : AC-3
Duration : 1h 21mn
Bit rate : 384 Kbps
Channel(s) : 6 channels
Stream size : 223 MiB (5%)
Language : English



Epoka lodowcowa 1-3 / Ice Age 1-3  (2002-2009) MULTI.1080p.BluRay.x264-rahab / POLSKI DUBBING
Uwaga! Linki nie zakodowane tylko dla zarejestrowanych użytkowników!

Nie masz konta? Zarejestruj się za darmo!
----------------
Links are not encoded only for registered users only! Plese login or register!


Epoka lodowcowa 1-3 / Ice Age 1-3  (2002-2009) MULTI.1080p.BluRay.x264-rahab / POLSKI DUBBING
Uwaga! Linki nie zakodowane tylko dla zarejestrowanych użytkowników!

Nie masz konta? Zarejestruj się za darmo!
----------------
Links are not encoded only for registered users only! Plese login or register!










Epoka lodowcowa 2: Odwilż / Ice Age 2: The Meltdown (2006) MULTI.1080p.BluRay.x264-rahab / POLSKI DUBBING

Epoka lodowcowa 1-3 / Ice Age 1-3  (2002-2009) MULTI.1080p.BluRay.x264-rahab / POLSKI DUBBING

http://www.filmweb.pl/2.Epoka.Lodowcowa

czas trwania: 1 godz. 31 min.
gatunek: Animacja, Komedia, Przygodowy
premiera: 31 marca 2006 (Polska) 2006-03-31 1 marca 2006 (świat) 2006-03-01
produkcja: USA
reżyseria: Carlos Saldanha
scenariusz: Lowell Ganz, Peter Gaulke

Epoka lodowcowa dobiega ko?ca. Gruba pokrywa lodowa topnieje, zagrażając zwierzętom, które mieszkają w dolinie. Sęp daje im wskazówkę: jeśli nie chcą utonąć w wodzie ze stopniałego lodowca, muszą udać się na drugą stronę doliny, gdzie czeka na nich ratunek - łódź, do której zmieszczą się wszystkie. Chcąc nie chcąc zwierzaki wyruszają na pielgrzymkę. Wśród nich są znani z pierwszej części filmu mamut Maniek, leniwiec Sid i tygrys szablozębny Diego. Tylko szalony Wiewiór zostaje, za wszelką cenę
chcąc "upolować" orzeszka. W filmie nie zabraknie nowych bohaterów. Wśród nich na pierwszy plan wysuwa się mamucica Ela i wyjątkowo dokuczliwe oposy: Zdzich i Edek

General
Format : Matroska
File size : 4.35 GiB
Duration : 1h 30mn
Overall bit rate : 6 876 Kbps
Video
Format/Info : Advanced Video Codec
Format profile : High@L4.1
Bit rate : 5 740 Kbps
Width : 1 920 pixels
Height : 1 080 pixels
Display aspect ratio : 16:9
Frame rate : 23.976 fps
Stream size : 3.54 GiB (81%)
Writing library : x264 core 115 r1995 c1e60b9
Language : English
Audio #1
Format : AC-3
Duration : 1h 30mn
Bit rate : 384 Kbps
Channel(s) : 6 channels
Stream size : 249 MiB (6%)
Language : Polish
Audio #2
Format : AC-3
Duration : 1h 30mn
Bit rate mode : Constant
Bit rate : 384 Kbps
Channel(s) : 6 channels
Stream size : 249 MiB (6%)
Language : German
Audio #3
Format : AC-3
Duration : 1h 30mn
Bit rate : 384 Kbps
Channel(s) : 6 channels
Stream size : 249 MiB (6%)
Language : English



Uwaga! Linki nie zakodowane tylko dla zarejestrowanych użytkowników!

Nie masz konta? Zarejestruj się za darmo!
----------------
Links are not encoded only for registered users only! Plese login or register!


Epoka lodowcowa 1-3 / Ice Age 1-3  (2002-2009) MULTI.1080p.BluRay.x264-rahab / POLSKI DUBBING
Uwaga! Linki nie zakodowane tylko dla zarejestrowanych użytkowników!

Nie masz konta? Zarejestruj się za darmo!
----------------
Links are not encoded only for registered users only! Plese login or register!




Użytkownik VIP

CrashRedVIP

#1 | Dodany: 23 Grudzień 2011 16:48

ok
Użytkownik VIP

torpedomaxUżytkownik

#2 | Dodany: 23 Grudzień 2011 20:24

Epoka Lodowcowa / Ice Age Trylogia (2002 - 2009) BluRay m-720p AC3 x264- DX Dubbing PL

Epoka Lodowcowa / Ice Age (2002) BluRay 720p AC3 x264- DX Dubbing PL
General

Epoka lodowcowa 2 - Odwilż / Ice Age 2: The Meltdown (2006) BluRay m-720p AC3 x264- DX Dubbing PL
General

Epoka lodowcowa 3: Era dinozaurów / Ice Age: Dawn of the Dinosaurs (2009) BluRay m-720p AC3 x264- DX Dubbing PL
General

Uwaga! Linki nie zakodowane tylko dla zarejestrowanych użytkowników!

Nie masz konta? Zarejestruj się za darmo!
----------------
Links are not encoded only for registered users only! Plese login or register!


Resident Evil ( 2002 - 2012 ) Kolekcja Multi.BluRay.1080p.x264.DTS-HDMA.DTS.AC3-DX Lektor i Napisy PL

http://www.exsite.pl/filmy_video_movies/filmy-hd-dvd5-dvd9/789890-kolekcja-resident-evil-2002-2012-bluray1080pduallaudiodtsac3x264-dx-engpl-napisy-pl.html

Gwiezdne wojny / Star Wars (1977-2005) THE.COMPLETE.SAGA.MULTi.HQ.1080p.BluRay.x264.DTS-HDMA.DTS.AC3-DX
LEKTOR, DUBBING i NAPISY PL


http://wklej.to/iE7tg
Użytkownik VIP

kpt.hunterUżytkownik

#3 | Dodany: 29 Grudzień 2011 11:00

brawo

Informacje

Jeżeli chcesz skomentować artykuł musisz być zarejestrowany na stronie.