EXSite.pl - Portal ze wszystkim Mamy tutaj wszystko

NIE MASZ JESZCZE KONTA? ZAREJESTRUJ SIĘ ZA DARMO!   
Przypomnij hasło X

Rio (2011) MULTI.1080p.BluRay.AC3.x264-rahab / POLSKI DUBBING

Dodał: CrashRed 23 Grudzień 2011 17:18


Rio (2011) MULTI.1080p.BluRay..AC3.x264-rahab / POLSKI DUBBING

Rio (2011) MULTI.1080p.BluRay.AC3.x264-rahab / POLSKI DUBBING

Rio (2011) MULTI.1080p.BluRay.AC3.x264-rahab / POLSKI DUBBING
http://www.filmweb.pl/film/Rio-2011-518040

czas trwania: 1 godz. 36 min.
gatunek: Animacja, Familijny, Komedia, Przygodowy
USA, Kanada, Brazylia
premiera: 8 kwietnia 2011 (Polska) 2011-04-08 3 kwietnia 2011 (świat) 2011-04-03
reżyseria: Carlos Saldanha
scenariusz: Don Rhymer, Joshua Sternin

Najnowszy film animowany twórców "Epoki lodowcowej". Niezwykłe przygody udomowionej papugi, która porzuca wygodne życie w małym miasteczku na ameryka?skiej prowincji i wyrusza do egzotycznego Rio de Janeiro.


General
Format : Matroska
Format version : Version 2
File size : 4.36 GiB
Duration : 1h 35mn
Overall bit rate : 6 503 Kbps
Video
Format : AVC
Format profile : High@L4.1
Duration : 1h 35mn
Bit rate : 5 355 Kbps
Width : 1 920 pixels
Height : 800 pixels
Display aspect ratio : 2.40:1
Frame rate : 23.976 fps
Stream size : 3.50 GiB (80%)
Title : Rio.2011.PL.DE.EN.AC3.1080p.BluRay.x264-rahab
Writing library : x264 core 116 r2074 2641b9e
Language : English
Audio #1
Format : AC-3
Duration : 1h 35mn
Bit rate mode : Constant
Bit rate : 384 Kbps
Channel(s) : 6 channels
Stream size : 264 MiB (6%)
Language : Polish
Audio #2
Format : AC-3
Duration : 1h 35mn
Bit rate mode : Constant
Bit rate : 384 Kbps
Channel(s) : 6 channels
Stream size : 264 MiB (6%)
Language : German
Audio #3
Format : AC-3
Duration : 1h 35mn
Bit rate mode : Constant
Bit rate : 384 Kbps
Channel(s) : 6 channels
Stream size : 264 MiB (6%)
Language : English



Rio (2011) MULTI.1080p.BluRay.AC3.x264-rahab / POLSKI DUBBING
Uwaga! Linki nie zakodowane tylko dla zarejestrowanych użytkowników!

Nie masz konta? Zarejestruj się za darmo!
----------------
Links are not encoded only for registered users only! Plese login or register!



Użytkownik VIP

CrashRedVIP

#1 | Dodany: 23 Grudzień 2011 17:18

ok
Użytkownik VIP

ueeUżytkownik

#2 | Dodany: 24 Grudzień 2011 11:21

Na to czekałem od dawna!
I 1080p. To cieszy najbardziej.
Dodany do kolejki ściągania.

thx thx
Nie spieraj się z idiotą, ktoś patrzący z boku mógłby was pomylić.
Użytkownik VIP

kpt.hunterUżytkownik

#3 | Dodany: 29 Grudzień 2011 10:59

brawo

Informacje

Jeżeli chcesz skomentować artykuł musisz być zarejestrowany na stronie.