EXSite.pl - Portal ze wszystkim Mamy tutaj wszystko

NIE MASZ JESZCZE KONTA? ZAREJESTRUJ SIĘ ZA DARMO!   
Przypomnij hasło X

Hop (2011) MULTI.1080p.BluRay.AC3.x264-rahab / POLSKI LEKTOR

Dodał: CrashRed 23 Grudzień 2011 17:39


Hop (2011) MULTI.1080p.BluRay.AC3.x264-rahab / POLSKI LEKTOR

Hop (2011) MULTI.1080p.BluRay.AC3.x264-rahab / POLSKI LEKTOR

Hop (2011) MULTI.1080p.BluRay.AC3.x264-rahab / POLSKI LEKTOR
http://www.filmweb.pl/film/Hop-2011-507438

czas trwania: 1 godz. 35 min.
gatunek: Animacja, Familijny, Komedia
premiera: 1 kwietnia 2011 (Polska) 2011-04-01 30 marca 2011 (świat) 2011-03-30
reżyseria: Tim Hill
scenariusz: Ken Daurio, Cinco Paul (więcej...)

Animacja realizowana przez producentów "Epoki lodowcowej". Pewnego wieczoru wielkanocny zajączek zostaje potrącony przez samochód . Złamana noga sprawia, że zajączek nie może podjąć swoich świątecznych obowiązków. Aby ocalić Wielkanoc, do działania zostaje zmuszony sprawca wypadku.


General
Format : Matroska
Format version : Version 2
File size : 4.36 GiB
Duration : 1h 35mn
Overall bit rate : 6 573 Kbps
Video
Format : AVC
Format profile : High@L4.1
Duration : 1h 35mn
Bit rate : 5 420 Kbps
Width : 1 920 pixels
Height : 1 080 pixels
Display aspect ratio : 16:9
Frame rate : 23.976 fps
Stream size : 3.51 GiB (80%)
Writing library : x264 core 116 r2074 2641b9e
Language : English
Audio #1
Format : AC-3
Duration : 1h 35mn
Bit rate mode : Constant
Bit rate : 384 Kbps
Channel(s) : 6 channels
Stream size : 261 MiB (6%)
Language : Polish
Audio #2
Format : AC-3
Duration : 1h 35mn
Bit rate mode : Constant
Bit rate : 384 Kbps
Channel(s) : 6 channels
Stream size : 261 MiB (6%)
Language : German
Audio #3
Format : AC-3
Duration : 1h 35mn
Bit rate mode : Constant
Bit rate : 384 Kbps
Channel(s) : 6 channels
Stream size : 261 MiB (6%)
Language : English



Hop (2011) MULTI.1080p.BluRay.AC3.x264-rahab / POLSKI LEKTOR
Uwaga! Linki nie zakodowane tylko dla zarejestrowanych użytkowników!

Nie masz konta? Zarejestruj się za darmo!
----------------
Links are not encoded only for registered users only! Plese login or register!


Hop (2011) MULTI.1080p.BluRay.AC3.x264-rahab / POLSKI LEKTOR
Uwaga! Linki nie zakodowane tylko dla zarejestrowanych użytkowników!

Nie masz konta? Zarejestruj się za darmo!
----------------
Links are not encoded only for registered users only! Plese login or register!

Użytkownik VIP

CrashRedVIP

#1 | Dodany: 23 Grudzień 2011 17:40

ok
Użytkownik VIP

IreniaUżytkownik

#2 | Dodany: 24 Grudzień 2011 09:20

thx
Użytkownik VIP

ueeUżytkownik

#3 | Dodany: 24 Grudzień 2011 11:19

Jakość, jakość, jakość...
Taka zawsze cieszy moje oko.
taniec
Dodany do kolejki ściągania.

thx thx
Nie spieraj się z idiotą, ktoś patrzący z boku mógłby was pomylić.
Użytkownik VIP

kpt.hunterUżytkownik

#4 | Dodany: 29 Grudzień 2011 10:58

uee,
To tak jak Ja lol
Oglądam filmy tylko w jakości HD lub FULL HD ok
Nie lubię skaczących pikseli wink
Użytkownik VIP

tajson49Użytkownik

#5 | Dodany: 31 Grudzień 2011 23:20

thx loler
Użytkownik VIP

xxrasherxxUżytkownik

#6 | Dodany: 16 Maj 2012 19:11

Hop (2011) 1080p.BluRay.x264.AC3 [Dubbing PL/DE/EN]



Dane techniczne:
Format: Matroska
File size: 4.36 GiB
Duration: 1h 35mn
Overall bit rate: 6 573 Kbps


Video
Format: AVC
Format profile: High@L4.1
Bit rate: 5 420 Kbps
Width: 1 920 pixels
Height: 1080 pixels
Display aspect ratio: 16:9
Frame rate: 23.976 fps


Audio #1
Format: AC-3
Bit rate: 384 Kbps
Channel(s): 6 channels
Sampling rate: 48.0 KHz
Language: Polish


Audio #2
Format: AC-3
Duration: 1h 35mn
Bit rate: 384 Kbps
Channel(s): 6 channels
Sampling rate: 48.0 KHz
Language: German


Audio #3
Format: AC-3
Duration: 1h 35mn
Bit rate: 384 Kbps
Channel(s): 6 channels
Sampling rate: 48.0 KHz
Language: English


Opis uploadu:
Wielkość całości: 4,46 Gb
Rodzaj kompresji: rar
Zawartość Uploadu: .mkv
wersja językowa: PL/Eng/Ger
Dane naprawcze: brak


Download // NO PASS
http://download.hellshare.com/hop-1080p/hop-2011-pl-ac3-1080p-bluray-x264-part1-rar/7335118
http://download.hellshare.com/hop-1080p/hop-2011-pl-ac3-1080p-bluray-x264-part2-rar/7335113
http://download.hellshare.com/hop-1080p/hop-2011-pl-ac3-1080p-bluray-x264-part3-rar/7335121
http://download.hellshare.com/hop-1080p/hop-2011-pl-ac3-1080p-bluray-x264-part4-rar/7335132
http://download.hellshare.com/hop-1080p/hop-2011-pl-ac3-1080p-bluray-x264-part5-rar/7335073

Informacje

Jeżeli chcesz skomentować artykuł musisz być zarejestrowany na stronie.