EXSite.pl - Portal ze wszystkim Mamy tutaj wszystko

NIE MASZ JESZCZE KONTA? ZAREJESTRUJ SIĘ ZA DARMO!   
Przypomnij hasło X

Angielska robota / The Bank Job (2008) m720p.AC3.DualAudio.x264-maaaniek

Dodał: maaaniek2 24 Grudzień 2011 14:42


Angielska robota / The Bank Job (2008) m720p.AC3.DualAudio.x264-maaaniek
[2,30GB]

audio: polski Angielska robota / The Bank Job (2008) m720p.AC3.DualAudio.x264-maaaniek / angielski Angielska robota / The Bank Job (2008) m720p.AC3.DualAudio.x264-maaaniek
napisy: polski Angielska robota / The Bank Job (2008) m720p.AC3.DualAudio.x264-maaaniek / angielski Angielska robota / The Bank Job (2008) m720p.AC3.DualAudio.x264-maaaniek
Angielska robota / The Bank Job (2008) m720p.AC3.DualAudio.x264-maaaniek

Angielska robota / The Bank Job (2008) m720p.AC3.DualAudio.x264-maaaniek
O FILMIE:


czas trwania: 1 godz. 50 min.
gatunek: Kryminał, Sensacyjny
premiera: 25 lipca 2008 (Polska) 19 lutego 2008 (świat)
reżyseria: Roger Donaldson
scenariusz: Dick Clement, Ian La Frenais


Opowieść o legendarnym już napadzie na bank na londy?skiej Baker Street w 1971 roku. Legendarnym, bo aż do dziś ani nikogo w tej sprawie nie aresztowano, ani nie odzyskano nawet pensa ze skradzionych przez rabusiów pieniędzy. Dodatkowo, przez niemal 35 lat, brytyjski rząd zakazał jakichkolwiek informacji na ten temat.

Angielska robota / The Bank Job (2008) m720p.AC3.DualAudio.x264-maaaniek


Angielska robota / The Bank Job (2008) m720p.AC3.DualAudio.x264-maaaniek
http://www.filmweb.pl/film/Angielska+robota-2008-402798
Angielska robota / The Bank Job (2008) m720p.AC3.DualAudio.x264-maaaniek
http://www.stopklatka.pl/film/film.asp?fi=33024
Angielska robota / The Bank Job (2008) m720p.AC3.DualAudio.x264-maaaniek
http://www.imdb.com/title/tt0200465/


Angielska robota / The Bank Job (2008) m720p.AC3.DualAudio.x264-maaaniek
DANE TECHNICZNE:




Angielska robota / The Bank Job (2008) m720p.AC3.DualAudio.x264-maaaniek
Archiwum RAR w partach po ~ 1gb

Archiwum testowane przed uploadem

Dodane dane naprawcze

Linki zamienne


Angielska robota / The Bank Job (2008) m720p.AC3.DualAudio.x264-maaaniek
DOWNLOAD:

Angielska robota / The Bank Job (2008) m720p.AC3.DualAudio.x264-maaaniek
Uwaga! Linki nie zakodowane tylko dla zarejestrowanych użytkowników!

Nie masz konta? Zarejestruj się za darmo!
----------------
Links are not encoded only for registered users only! Plese login or register!

Angielska robota / The Bank Job (2008) m720p.AC3.DualAudio.x264-maaaniek
Uwaga! Linki nie zakodowane tylko dla zarejestrowanych użytkowników!

Nie masz konta? Zarejestruj się za darmo!
----------------
Links are not encoded only for registered users only! Plese login or register!

Angielska robota / The Bank Job (2008) m720p.AC3.DualAudio.x264-maaaniek
Uwaga! Linki nie zakodowane tylko dla zarejestrowanych użytkowników!

Nie masz konta? Zarejestruj się za darmo!
----------------
Links are not encoded only for registered users only! Plese login or register!

Angielska robota / The Bank Job (2008) m720p.AC3.DualAudio.x264-maaaniek
HASŁO:

maaaniek



Martwe linki? Potrzebny reupload? Nie pisz o tym w komentarzach pod newsem tylko poinformuj mnie na PW!


Zobacz koniecznie moje newsy na EXSite.pl z filmami w HD m720p!

Użytkownik VIP

CrashRedVIP

#1 | Dodany: 24 Grudzień 2011 14:44

F
ormat : Matroska
File size : 3.50 GiB
Duration : 1h 52mn
Overall bit rate : 4 468 Kbps
Video
Format/Info : Advanced Video Codec
Format profile : High@L5.1
Duration : 1h 52mn
Bit rate : 4 015 Kbps
Width : 1 280 pixels
Height : 544 pixels
Display aspect ratio : 2.35:1
Frame rate : 23.976 fps
Stream size : 3.08 GiB (88%)
Writing library : x264 core 60 r889M 2c59717
Language : English
Audio
Format : AC-3
Duration : 1h 52mn
Bit rate mode : Constant
Bit rate : 448 Kbps
Channel(s) : 6 channels
Stream size : 359 MiB (10%)
Title : Crash-Polski



Angielska robota / The Bank Job (2008) PL.720p.BluRay.x264-Crash / POLSKI LEKTOR

Uwaga! Linki nie zakodowane tylko dla zarejestrowanych użytkowników!

Nie masz konta? Zarejestruj się za darmo!
----------------
Links are not encoded only for registered users only! Plese login or register!
Użytkownik VIP

ueeUżytkownik

#2 | Dodany: 24 Grudzień 2011 14:54

Uwielbiam ten film! :D
Może dlatego, że byłem jednym ze sprawców.
loler

Z chęcią go wciągnę sobie kolejny raz w pierwszy dzie? świąt.

thx thx
Nie spieraj się z idiotą, ktoś patrzący z boku mógłby was pomylić.
Użytkownik VIP

rico30Użytkownik

#3 | Dodany: 24 Grudzień 2011 17:25

do manniek2.....prosze o ponowne wstawienie linkow na fsonic -padly.
Użytkownik VIP

maaaniek2VIP

#4 | Dodany: 24 Grudzień 2011 18:34

rico30,
ee tam ..coś źle sprawdziłeś..wszystko jest online wink
Użytkownik VIP

zuzka007Użytkownik

#5 | Dodany: 27 Grudzień 2011 08:47

Hasło to maaaniek (przez 3 a), a nie maaniek (przez 2 a jak jest podane). To tak dla informacji, poza tym w porządku. Dzięki za wstawkę. thx
Użytkownik VIP

maaaniek2VIP

#6 | Dodany: 8 Styczeń 2012 16:34

zuzka007, no sorry ..ale ja tam widzę że podałem prawidłowo czyli maaaniek a nie maaniek wink To nie możliwe by tam była pomyłka bo to juz mam w szablonie i dodawane jest automatycznie ...zawsze tak samo wink
Pozdro

Informacje

Jeżeli chcesz skomentować artykuł musisz być zarejestrowany na stronie.