EXSite.pl - Portal ze wszystkim Mamy tutaj wszystko

NIE MASZ JESZCZE KONTA? ZAREJESTRUJ SIĘ ZA DARMO!   
Przypomnij hasło X

Przekręt / Snatch (2000) PL.BluRay.720p.x264-LTN + m720p

Dodał: H1s 1 Styczeń 2012 18:26


Przekręt / Snatch (2000) PL.BluRay.720p.x264-LTN

Przekręt / Snatch (2000) PL.BluRay.720p.x264-LTN + m720p

Złodziej i kurier brylantów Franky Cztery Palce leci do Nowego Jorku, by dostarczyć bezcenny diament jednemu z szefów tamtejszej mafii, Aviemu. Po drodze zatrzymuje się w Londynie, gdzie pada ofiarą oszustów, którzy kradną diament. Na wieść o kłopotach Franky'ego Avi wpada w szał i wraz ze swoimi gorylami wyrusza do Londynu. Po przybyciu na miejsce wynajmuje owianego aurą legendy Tony'ego zwanego Kulozębym każąc mu odnaleźć diament. Gdy prawda wyjdzie na jaw, rozpęta się prawdziwe piekło...
"Przekręt" to brawurowa czarna komedia o gangsterskich porachunkach, nielegalnych walkach bokserskich i diamencie wielkim jak góra, wyreżyserowana przez Guya Ritchie, którego krytycy nie bez racji nazywają brytyjskim Quentinem Tarantino.
Przekret.2000.PL.BluRay.720p.x264-LTN
ŹRÓDŁO V: Snatch.2000.720p.BluRay.x264-BestHD
ŹRÓDŁO A: DVD
OGÓLNE: Matroska, mkv, 4.69 GB, 1h 42 min. 46s 160ms
WIDEO: 1280x696 (720p), x264 ~ 4.580 Kb/s, FPS: 23.976, High@L4.1, 16:9
AUDIO: Polski Lektor (profesjonalny) AC3 5.1 ~ 448 kbps, Angielski DTS 5.1 ~ 1536 kbps
NAPISY: Pol - TXT, Eng - UTF-8
INFORMACJE EXTRA: Party można pobierać naprzemiennie, Party zawierają dane naprawcze


FileSonic:
Uwaga! Linki nie zakodowane tylko dla zarejestrowanych użytkowników!

Nie masz konta? Zarejestruj się za darmo!
----------------
Links are not encoded only for registered users only! Plese login or register!


FileServe:
Uwaga! Linki nie zakodowane tylko dla zarejestrowanych użytkowników!

Nie masz konta? Zarejestruj się za darmo!
----------------
Links are not encoded only for registered users only! Plese login or register!


FileJungle:
Uwaga! Linki nie zakodowane tylko dla zarejestrowanych użytkowników!

Nie masz konta? Zarejestruj się za darmo!
----------------
Links are not encoded only for registered users only! Plese login or register!


UploadStation:
Uwaga! Linki nie zakodowane tylko dla zarejestrowanych użytkowników!

Nie masz konta? Zarejestruj się za darmo!
----------------
Links are not encoded only for registered users only! Plese login or register!


Przekret.2000.PL.BluRay.m720p.x264-LTN
ŹRÓDŁO V: Przekret.2000.PL.BluRay.720p.x264-LTN
ŹRÓDŁO A: DVD
OGÓLNE: Matroska, mkv, 2.18 GB, 1h 42 min. 46s 160ms
WIDEO: 1280x696 (720p), x264 ~ 2.595 Kb/s, FPS: 23.976, High@L4.1, 16:9
AUDIO: Polski Lektor (profesjonalny) AC3 5.1 ~ 448 kbps
NAPISY: Brak
INFORMACJE EXTRA: Party można pobierać naprzemiennie, Party zawierają dane naprawcze


FileSonic:
Uwaga! Linki nie zakodowane tylko dla zarejestrowanych użytkowników!

Nie masz konta? Zarejestruj się za darmo!
----------------
Links are not encoded only for registered users only! Plese login or register!


FileServe:
Uwaga! Linki nie zakodowane tylko dla zarejestrowanych użytkowników!

Nie masz konta? Zarejestruj się za darmo!
----------------
Links are not encoded only for registered users only! Plese login or register!


FileJungle:
Uwaga! Linki nie zakodowane tylko dla zarejestrowanych użytkowników!

Nie masz konta? Zarejestruj się za darmo!
----------------
Links are not encoded only for registered users only! Plese login or register!


UploadStation:
Uwaga! Linki nie zakodowane tylko dla zarejestrowanych użytkowników!

Nie masz konta? Zarejestruj się za darmo!
----------------
Links are not encoded only for registered users only! Plese login or register!


Użytkownik VIP

CrashRedVIP

#1 | Dodany: 29 Grudzień 2011 21:59

ormat : Matroska
File size : 3.57 GiB
Duration : 1h 42mn
Overall bit rate : 4 967 Kbps
Video
Format/Info : Advanced Video Codec
Format profile : High@L4.1
Duration : 1h 42mn
Bit rate : 4 516 Kbps
Width : 1 280 pixels
Height : 694 pixels
Display aspect ratio : 16:9
Frame rate : 23.976 fps
Stream size : 3.17 GiB (89%)
Title : Snatch. (2000)
Writing library : x264 core 77 r1292M e381f6d
Language : English
Audio
Format : AC-3
Duration : 1h 42mn
Bit rate mode : Constant
Bit rate : 448 Kbps
Channel(s) : 6 channels
Stream size : 329 MiB (9%)
Title : Crash-Polski



Przekręt / Snatch (2000) PL.720p.BluRay.x264-Crash / POLSKI LEKTOR
Uwaga! Linki nie zakodowane tylko dla zarejestrowanych użytkowników!

Nie masz konta? Zarejestruj się za darmo!
----------------
Links are not encoded only for registered users only! Plese login or register!

Informacje

Jeżeli chcesz skomentować artykuł musisz być zarejestrowany na stronie.