EXSite.pl - Portal ze wszystkim Mamy tutaj wszystko

NIE MASZ JESZCZE KONTA? ZAREJESTRUJ SIĘ ZA DARMO!   
Przypomnij hasło X

Terminal / The Terminal (2004) PLDUB.HDTV.720p.x264-LTN + m720p

Dodał: H1s 1 Styczeń 2012 18:30


Terminal / The Terminal (2004) PLDUB.HDTV.720p.x264-LTN

Terminal / The Terminal (2004) PLDUB.HDTV.720p.x264-LTN + m720p


"The Terminal" opowiada historię Victora Navorskiego (Tom Hanks) przybysza z Europy Wschodniej, który przybył do Ameryki by spełnić prośbe swojego zmarłego ojca.Gdy ten był w drodze do Ameryki w jego kraju wybuchła wojna domowa.Gdy wylądował na losnisku lotnisku im. John'a F. Kennedy'ego w Nowym Jorku posiada paszport kraju już nie istniejącego z tego powodu nie ma prawa wejść na teren USA.Pozwolono mu zostać na terenie lotniska ,a dokładniej w Terminalu do czasu kiedy w jego kraju zapanuje pokuj. Victor stara się dostosować do tej sytuacji - próbuje znaleźć pracę, zdobywa nowych przyjaciół, a także... zakochuje się w stewardesie Ameli (Catherina Zeta-Jones). Mieszkając w Terminalu obserwuje tętniące tam życie ,które jest odbiciem naszego świata.
Terminal.2004.PLDUB.HDTV.720p.x264-LTN
ŹRÓDŁO V: The.Terminal.2004.720p.HDTV.x264-ESiR
ŹRÓDŁO A: DVD
OGÓLNE: Matroska, mkv, 4.69 GB, 2h 3 min. 34s 160ms
WIDEO: 1280x704 (720p), x264 ~ 4.675 Kb/s, FPS: 25.000, High@L5.1, 16:9
AUDIO: Polski Dubbing (profesjonalny) AC3 5.1 ~ 384 kbps, Angielski AC 2.0 ~ 384 kbps
NAPISY: Pol - TXT, Eng - UTF-8
INFORMACJE EXTRA: Party można pobierać naprzemiennie, Party zawierają dane naprawcze


FileSonic:
Uwaga! Linki nie zakodowane tylko dla zarejestrowanych użytkowników!

Nie masz konta? Zarejestruj się za darmo!
----------------
Links are not encoded only for registered users only! Plese login or register!


FileServe:
Uwaga! Linki nie zakodowane tylko dla zarejestrowanych użytkowników!

Nie masz konta? Zarejestruj się za darmo!
----------------
Links are not encoded only for registered users only! Plese login or register!


FileJungle:
Uwaga! Linki nie zakodowane tylko dla zarejestrowanych użytkowników!

Nie masz konta? Zarejestruj się za darmo!
----------------
Links are not encoded only for registered users only! Plese login or register!


UploadStation:
Uwaga! Linki nie zakodowane tylko dla zarejestrowanych użytkowników!

Nie masz konta? Zarejestruj się za darmo!
----------------
Links are not encoded only for registered users only! Plese login or register!


Terminal.2004.PLDUB.HDTV.m720p.x264-LTN
ŹRÓDŁO V: Terminal.2004.PLDUB.HDTV.720p.x264-LTN
ŹRÓDŁO A: DVD
OGÓLNE: Matroska, mkv, 2.18 GB, 2h 3 min. 34s 200ms
WIDEO: 1280x704 (720p), x264 ~ 2.147 Kb/s, FPS: 25.000, High@L4.1, 16:9
AUDIO: Polski Dubbing (profesjonalny) AC3 5.1 ~ 384 kbps
NAPISY: Brak
INFORMACJE EXTRA: Party można pobierać naprzemiennie, Party zawierają dane naprawcze


FileSonic:
Uwaga! Linki nie zakodowane tylko dla zarejestrowanych użytkowników!

Nie masz konta? Zarejestruj się za darmo!
----------------
Links are not encoded only for registered users only! Plese login or register!


FileServe:
Uwaga! Linki nie zakodowane tylko dla zarejestrowanych użytkowników!

Nie masz konta? Zarejestruj się za darmo!
----------------
Links are not encoded only for registered users only! Plese login or register!


FileJungle:
Uwaga! Linki nie zakodowane tylko dla zarejestrowanych użytkowników!

Nie masz konta? Zarejestruj się za darmo!
----------------
Links are not encoded only for registered users only! Plese login or register!


UploadStation:
Uwaga! Linki nie zakodowane tylko dla zarejestrowanych użytkowników!

Nie masz konta? Zarejestruj się za darmo!
----------------
Links are not encoded only for registered users only! Plese login or register!


Użytkownik VIP

tajson49Użytkownik

#1 | Dodany: 29 Grudzień 2011 18:29

świetny film :)
Użytkownik VIP

FifjorUżytkownik

#2 | Dodany: 29 Grudzień 2011 20:33

ok
Użytkownik VIP

CrashRedVIP

#3 | Dodany: 29 Grudzień 2011 21:57

File size : 4.32 GiB
Duration : 2h 3mn
Overall bit rate : 5 000 Kbps
Encoded date : UTC 2011-02-13 12:58:07
Writing application : mkvmerge v2.2.0 ('Turn It On Again') built on Mar 4 2008 13:20:25
Writing library : libebml v0.7.7 + libmatroska v0.8.1
Video
ID : 1
Format : AVC
Format/Info : Advanced Video Codec
Format profile : High@L5.1
Format settings, CABAC : Yes
Format settings, ReFrames : 8 frames
Format settings, GOP : M=1, N=2
Muxing mode : Container profile=Unknown@5.1
Codec ID : V_MPEG4/ISO/AVC
Duration : 2h 3mn
Bit rate : 4 675 Kbps
Width : 1 280 pixels
Height : 704 pixels
Display aspect ratio : 16:9
Frame rate : 25.000 fps
Color space : YUV
Chroma subsampling : 4:2:0
Bit depth : 8 bits
Scan type : Progressive
Bits/(Pixel*Frame) : 0.208
Stream size : 3.95 GiB (92%)
Title : x264 Videostream
Writing library : x264 core 54 svn-606
Audio
ID : 2
Format : AC-3
Format/Info : Audio Coding 3
Mode extension : CM (complete main)
Codec ID : A_AC3
Duration : 2h 3mn
Bit rate mode : Constant
Bit rate : 320 Kbps
Channel(s) : 2 channels
Channel positions : Front: L R
Sampling rate : 48.0 KHz
Bit depth : 16 bits
Stream size : 283 MiB (6%)
Title : polski ac3 320 Kbps
Language : Polish



Terminal / The Terminal (2004) 720p.HDTV.x264-Crash POLSKI DUBBING

Uwaga! Linki nie zakodowane tylko dla zarejestrowanych użytkowników!

Nie masz konta? Zarejestruj się za darmo!
----------------
Links are not encoded only for registered users only! Plese login or register!
Użytkownik VIP

razor111Użytkownik

#4 | Dodany: 30 Grudzień 2011 09:01

"...zapanuje pokuj..." OMG...

Informacje

Jeżeli chcesz skomentować artykuł musisz być zarejestrowany na stronie.