EXSite.pl - Portal ze wszystkim Mamy tutaj wszystko

NIE MASZ JESZCZE KONTA? ZAREJESTRUJ SIĘ ZA DARMO!   
Przypomnij hasło X

Dawno temu w trawie / A Bug's Life (1998) MULTI.1080p.BluRay.AC3.x264-rahab / POLSI DUBBING

Dodał: CrashRed 30 Grudzień 2011 17:10


Dawno temu w trawie / A Bug's Life (1998) MULTI.1080p.BluRay.AC3.x264-rahab / POLSI DUBBING

Dawno temu w trawie / A Bug's Life (1998) MULTI.1080p.BluRay.AC3.x264-rahab / POLSI DUBBING

Dawno temu w trawie / A Bug's Life (1998) MULTI.1080p.BluRay.AC3.x264-rahab / POLSI DUBBING
http://www.filmweb.pl/film/Dawno+temu+w+trawie-1998-34

czas trwania: 1 godz. 36 min.
gatunek: Animacja, Dla dzieci, Komedia
premiera: 29 stycznia 1999 (Polska) 1999-01-29 14 listopada 1998 (świat) 1998-11-14
reżyseria: Andrew Stanton, John Lasseter
scenariusz: Joe Ranft, Andrew Stanton

Film animowany, komedia baśniowa z życia owadów. Kolonia mrówek całą wiosnę i lato zbiera pokarm na zimę. Jesienią zjawia się armia koników polnych i żąda swego udziału. Jeden z mieszka?ców mrowiska, naukowiec o marzycielskich skłonnościach, wyrusza w świat, by znaleźć sprzymierze?ców do walki z agresorami.


General
Format : Matroska
Format version : Version 2
File size : 4.36 GiB
Duration : 1h 34mn
Overall bit rate : 6 584 Kbps
Video
Format/Info : Advanced Video Codec
Format profile : High@L4.1
Duration : 1h 34mn
Bit rate : 5 430 Kbps
Width : 1 920 pixels
Height : 816 pixels
Display aspect ratio : 2.35:1
Frame rate : 23.976 fps
Bits/(Pixel*Frame) : 0.145
Stream size : 3.51 GiB (81%)
Writing library : x264 core 116 r2074 2641b9e
Audio #1
Format : AC-3
Duration : 1h 34mn
Bit rate : 384 Kbps
Channel(s) : 6 channels
Stream size : 261 MiB (6%)
Language : Polish
Audio #2
Format : AC-3
Duration : 1h 34mn
Bit rate : 384 Kbps
Channel(s) : 6 channels
Stream size : 261 MiB (6%)
Language : German
Audio #3
Format/Info : Audio Coding 3
Duration : 1h 34mn
Bit rate mode : Constant
Bit rate : 384 Kbps
Channel(s) : 6 channels
Stream size : 261 MiB (6%)
Language : English



Dawno temu w trawie / A Bug's Life (1998) MULTI.1080p.BluRay.AC3.x264-rahab / POLSI DUBBING
Uwaga! Linki nie zakodowane tylko dla zarejestrowanych użytkowników!

Nie masz konta? Zarejestruj się za darmo!
----------------
Links are not encoded only for registered users only! Plese login or register!



Użytkownik VIP

CrashRedVIP

#1 | Dodany: 30 Grudzień 2011 17:10

:Źródło: A.Bugs.Life.1998.720p.BluRay.x264-ESiR
Pełna nazwa: A.Bugs.Life.1998.PL.720p.BluRay.x264-BLUEBiRDs
Rozmiar pliku: 3,36 GB
Czas: 1h 27m
Wideo
Kodek: x264
Format: .mkv
Nominal BitRate: 4630 Kbps
Rozdzielczość: 1280 x 544
Przepływowość ramek: 23,976 kl/s
Profil: High@4.1
Audio
Audio 1: AC3 5.1 448 Kbps



Dawno temu w trawie / Bug's Life, A (1998) PL.720p.BluRay.x264-BLUEBiRDs POLSKI DUBBING
Uwaga! Linki nie zakodowane tylko dla zarejestrowanych użytkowników!

Nie masz konta? Zarejestruj się za darmo!
----------------
Links are not encoded only for registered users only! Plese login or register!

Informacje

Jeżeli chcesz skomentować artykuł musisz być zarejestrowany na stronie.