EXSite.pl - Portal ze wszystkim Mamy tutaj wszystko

NIE MASZ JESZCZE KONTA? ZAREJESTRUJ SIĘ ZA DARMO!   
Przypomnij hasło X

Szeregowiec Dolot / Valiant (2005) MULTI.1080p.BluRay.AC3.x264-rahab / POLSKI DUBBING

Dodał: CrashRed 30 Grudzień 2011 17:33


Szeregowiec Dolot / Valiant (2005) MULTI.1080p.BluRay.AC3.x264-rahab / POLSKI DUBBING

Szeregowiec Dolot / Valiant (2005) MULTI.1080p.BluRay.AC3.x264-rahab / POLSKI DUBBING

Szeregowiec Dolot / Valiant (2005) MULTI.1080p.BluRay.AC3.x264-rahab / POLSKI DUBBING
http://www.filmweb.pl/Szeregowiec.Dolot

czas trwania: 1 godz. 15 min.
gatunek: Animacja, Familijny, Komedia
premiera: 19 sierpnia 2005 (Polska) 2005-08-19 20 marca 2005 (świat) 2005-03-20
reżyseria: Gary Chapman, Rob Letterman
scenariusz: Phil Hay, Matt Manfredi

Animowany film rozgrywający się w realiach Drugiej Wojny światowej opowiada o przygodach gołębia pocztowego w służbie Aliantów. Nieprzygotowany do pracy w takich warunkach, nasz bohater przechodzi szybki trening w RAFie i chwilę później zostaje wysłany w szalenie ważną i niebezpieczną misję. Musi dostarczyć Aliantom kluczową wiadomość od Francuskiego Ruchu Oporu z informacją o dacie lądowania wojsk sprzymierzonych w Normandii.


General
Format : Matroska
Format version : Version 2
File size : 4.36 GiB
Duration : 1h 16mn
Overall bit rate : 8 207 Kbps
Video
Format/Info : Advanced Video Codec
Format profile : High@L4.1
Codec ID : V_MPEG4/ISO/AVC
Duration : 1h 16mn
Bit rate : 7 341 Kbps
Width : 1 920 pixels
Height : 1 080 pixels
Display aspect ratio : 16:9
Frame rate : 23.976 fps
Stream size : 3.80 GiB (87%)
Writing library : x264 core 116 r2074 2641b9e
Language : English
Audio #1
Format : AC-3
Duration : 1h 16mn
Bit rate mode : Constant
Bit rate : 448 Kbps
Channel(s) : 6 channels
Stream size : 244 MiB (5%)
Language : Polish
Audio #2
Format : AC-3
Duration : 1h 16mn
Bit rate mode : Constant
Bit rate : 448 Kbps
Channel(s) : 6 channels
Stream size : 244 MiB (5%)
Language : English



Szeregowiec Dolot / Valiant (2005) MULTI.1080p.BluRay.AC3.x264-rahab / POLSKI DUBBING
Uwaga! Linki nie zakodowane tylko dla zarejestrowanych użytkowników!

Nie masz konta? Zarejestruj się za darmo!
----------------
Links are not encoded only for registered users only! Plese login or register!



Użytkownik VIP

CrashRedVIP

#1 | Dodany: 30 Grudzień 2011 17:33

ok
Użytkownik VIP

19Misiek87Użytkownik

#2 | Dodany: 31 Grudzień 2011 18:43

taniec super :)

Informacje

Jeżeli chcesz skomentować artykuł musisz być zarejestrowany na stronie.