EXSite.pl - Portal ze wszystkim Mamy tutaj wszystko

NIE MASZ JESZCZE KONTA? ZAREJESTRUJ SIĘ ZA DARMO!   
Przypomnij hasło X

Planeta 51 / Planet 51 (2009) MULTI.1080p.BluRay.x264-rahab / POLSKI DUBBING

Dodał: CrashRed 30 Grudzień 2011 17:59


Planeta 51 / Planet 51 (2009) MULTI.1080p.BluRay.x264-rahab / POLSKI DUBBING

Planeta 51 / Planet 51 (2009) MULTI.1080p.BluRay.x264-rahab / POLSKI DUBBING

Planeta 51 / Planet 51 (2009) MULTI.1080p.BluRay.x264-rahab / POLSKI DUBBING
http://www.filmweb.pl/film/Planeta+51-2009-298583

czas trwania: 1 godz. 30 min.
gatunek: Animacja, Komedia, Przygodowy, Sci-Fi
premiera: 29 stycznia 2010 (Polska) 2010-01-29 14 listopada 2009 (świat) 2009-11-14
produkcja: Hiszpania, USA, Wielka Brytania
reżyseria: Jorge Blanco
scenariusz: Joe Stillman, Bartosz Wierzbięta

Nowy film twórców „Shreka”! Typowi mieszka?cy planety mają dwoje czułków, osiem palców i panicznie boją się inwazji obcych cywilizacji. 16-letni Lem jest wzorowym uczniem i wiedzie beztroskie życie marząc o kosmosie oraz o swojej uroczej zielonoskórej sąsiadce Neerze. Pewnego dnia, w samym środku rodzinnego grilla na podwórku Neery ląduje niezidentyfikowany obiekt latający opatrzony śmiesznie brzmiącym napisem „NASA”. Gdy sterujący nim Kapitan Russ Baker opuszcza swój statek, aby triumfalnie
wbić w nieodkrytą dotąd ziemię ameryka?ską flagę zauważa… kilkoro wgapionych w siebie otwartych ze zdziwienia oczu. Spanikowany bierze nogi za pas i znajduje schronienie w planetarium, w którym pracuje Lem. Po początkowej fazie wzajemnej nieufności między bohaterami stopniowo zaczyna kiełkować przyjaź?. Teraz Lem, wraz z pomocą życzliwych lecz niezbyt bystrych przyjaciół, musi nie tylko ukryć swojego ziemskiego przyjaciela przed ścigającym go wojskiem, ale także pomóc mu jak najszybciej wrócić na przejęty przez władze planety statek


General
Format : Matroska
File size : 4.36 GiB
Duration : 1h 31mn
Overall bit rate : 6 856 Kbps
Video
Format/Info : Advanced Video Codec
Format profile : High@L4.1
Duration : 1h 31mn
Bit rate : 5 709 Kbps
Width : 1 920 pixels
Height : 816 pixels
Display aspect ratio : 2.35:1
Frame rate : 23.976 fps
Stream size : 3.54 GiB (81%)
Writing library : x264 core 115 r1995 c1e60b9
Language : English
Audio #
Format : AC-3
Duration : 1h 31mn
Bit rate mode : Constant
Bit rate : 384 Kbps
Channel(s) : 6 channels
Stream size : 250 MiB (6%)
Language : Polish
Audio #2
Format : AC-3
Duration : 1h 31mn
Bit rate mode : Constant
Bit rate : 384 Kbps
Channel(s) : 6 channels
Stream size : 250 MiB (6%)
Language : German
Audio #3
Format : AC-3
Duration : 1h 31mn
Bit rate mode : Constant
Bit rate : 384 Kbps
Channel(s) : 6 channels
Stream size : 250 MiB (6%)
Language : English



Planeta 51 / Planet 51 (2009) MULTI.1080p.BluRay.x264-rahab / POLSKI DUBBING
Uwaga! Linki nie zakodowane tylko dla zarejestrowanych użytkowników!

Nie masz konta? Zarejestruj się za darmo!
----------------
Links are not encoded only for registered users only! Plese login or register!


Planeta 51 / Planet 51 (2009) MULTI.1080p.BluRay.x264-rahab / POLSKI DUBBING
Uwaga! Linki nie zakodowane tylko dla zarejestrowanych użytkowników!

Nie masz konta? Zarejestruj się za darmo!
----------------
Links are not encoded only for registered users only! Plese login or register!

Użytkownik VIP

CrashRedVIP

#1 | Dodany: 30 Grudzień 2011 18:00

ok
Użytkownik VIP

SaipherUżytkownik

#2 | Dodany: 30 Grudzień 2011 23:23

thx
Flynn Lives !
Użytkownik VIP

tajson49Użytkownik

#3 | Dodany: 31 Grudzień 2011 23:10

loler
Użytkownik VIP

r.marioUżytkownik

#4 | Dodany: 7 Styczeń 2012 13:18

thx

Informacje

Jeżeli chcesz skomentować artykuł musisz być zarejestrowany na stronie.