EXSite.pl - Portal ze wszystkim Mamy tutaj wszystko

NIE MASZ JESZCZE KONTA? ZAREJESTRUJ SIĘ ZA DARMO!   
Przypomnij hasło X

Potwory kontra Obcy / Monsters vs. Aliens (2009) MULTI.1080p.BluRay.x264-rahab / POLSKI DUBBING

Dodał: CrashRed 30 Grudzień 2011 18:25


Potwory kontra Obcy / Monsters vs. Aliens (2009) MULTI.1080p.BluRay.x264-rahab / POLSKI DUBBING

Potwory kontra Obcy / Monsters vs. Aliens (2009) MULTI.1080p.BluRay.x264-rahab / POLSKI DUBBING

Potwory kontra Obcy / Monsters vs. Aliens (2009) MULTI.1080p.BluRay.x264-rahab / POLSKI DUBBING
http://www.filmweb.pl/film/Potwory+kontra+Obcy-2009-425990

czas trwania: 1 godz. 38 min.
gatunek: Animacja, Familijny, Akcja, Sci-Fi
premiera: 29 maja 2009 (Polska) 2009-05-29 19 marca 2009 (świat) 2009-03-19
produkcja: USA
reżyseria: Conrad Vernon, Rob Letterman
scenariusz: Maya Forbes, Wallace Wolodarsky

Znakomita animacja 3D dla wszystkich. Susan Murphy to nowoczesna dziewczyna z Kalifornii, która podczas swojego wymarzonego ślubu zostaje uderzona przez... meteor, co powoduje że rośnie do niewiarygodnych rozmiarów 49 stóp. Susan trafia do tajnej rządowej placówki, w której spotyka inne dziwne stwory odkryte na przestrzeni lat. Gdy Ziemia zostaje zaatakowana przez kosmitów, rząd USA, nie widząc innego rozwiązania, wysyła grupę dziwolągów do walki z najeźdźcą.


General
Format : Matroska
Format version : Version 2
File size : 4.36 GiB
Duration : 1h 30mn
Overall bit rate : 6 901 Kbps
Video
Format/Info : Advanced Video Codec
Format profile : High@L4.1
Duration : 1h 30mn
Bit rate : 5 556 Kbps
Width : 1 920 pixels
Height : 816 pixels
Display aspect ratio : 2.35:1
Frame rate : 25.000 fps
Stream size : 3.43 GiB (79%)
Writing library : x264 core 115 r1995 c1e60b9
Language : English
Audio #1
Format : AC-3
Duration : 1h 30mn
Bit rate : 448 Kbps
Channel(s) : 6 channels
Stream size : 290 MiB (6%)
Language : Polish
Audio #2
Format : AC-3
Duration : 1h 30mn
Bit rate : 448 Kbps
Channel(s) : 6 channels
Stream size : 290 MiB (6%)
Language : German
Audio #3
Format : AC-3
Duration : 1h 30mn
Bit rate : 448 Kbps
Channel(s) : 6 channels
Stream size : 290 MiB (6%)
Language : English
Text #1
Language : Polish
Text #2
Language : English
Text #3
Language : Czech
Text #4
Language : Slovak
Text #5
Language : German
Text #6
Language : Polish



Potwory kontra Obcy / Monsters vs. Aliens (2009) MULTI.1080p.BluRay.x264-rahab / POLSKI DUBBING
Uwaga! Linki nie zakodowane tylko dla zarejestrowanych użytkowników!

Nie masz konta? Zarejestruj się za darmo!
----------------
Links are not encoded only for registered users only! Plese login or register!



Użytkownik VIP

CrashRedVIP

#1 | Dodany: 30 Grudzień 2011 18:25

ok
Użytkownik VIP

tajson49Użytkownik

#2 | Dodany: 31 Grudzień 2011 23:09

thx
Użytkownik VIP

xxrasherxxUżytkownik

#3 | Dodany: 16 Maj 2012 20:47

Potwory kontra Obcy / Monsters vs. Aliens (2009) 1080p.BluRay.x264.AC3 [Dubbing PL/DE/EN]



Dane techniczne:
Format: Matroska
File size: 4.36 GiB
Duration: 1h 30mn
Overall bit rate: 6 901 Kbps


Video
Format: AVC
Format profile: High@L4.1
Bit rate: 5 556 Kbps
Width: 1 920 pixels
Height: 816 pixels
Display aspect ratio: 2.35:1
Frame rate: 25.000 fps


Audio #1
Format: AC-3
Bit rate: 448 Kbps
Channel(s): 6 channels
Sampling rate: 48.0 KHz
Language: Polish


Audio #2
Format: AC-3
Duration: 1h 30mn
Bit rate: 448 Kbps
Channel(s): 6 channels
Sampling rate: 48.0 KHz
Language: German


Audio #3
Format: AC-3
Duration: 1h 30mn
Bit rate: 448 Kbps
Channel(s): 6 channels
Sampling rate: 48.0 KHz
Language: English


Text#1
Format: VobSub
Language: Polish


Text#2
Format: VobSub
Language: English


Text#3
Format: VobSub
Language: Czech


Text#4
Format: VobSub
Language: Slovak


Text#5
Format: UTF-8
Language: German


Text#6
Format: UTF-8
Language: Polish


Opis uploadu:
Wielkość całości: 4,46 Gb
Rodzaj kompresji: rar
Zawartość Uploadu: .mkv
wersja językowa: PL/Eng/Ger
Dane naprawcze: brak


Download // NO PASS
http://download.hellshare.com/mvsa-1080p/monsters-vs-aliens-2009-ac3-1080p-bluray-x264-part1-rar/7336385
http://download.hellshare.com/mvsa-1080p/monsters-vs-aliens-2009-ac3-1080p-bluray-x264-part2-rar/7336364
http://download.hellshare.com/mvsa-1080p/monsters-vs-aliens-2009-ac3-1080p-bluray-x264-part3-rar/7336380
http://download.hellshare.com/mvsa-1080p/monsters-vs-aliens-2009-ac3-1080p-bluray-x264-part4-rar/7336378
http://download.hellshare.com/mvsa-1080p/monsters-vs-aliens-2009-ac3-1080p-bluray-x264-part5-rar/7336310
Użytkownik VIP

ampatinisUżytkownik

#4 | Dodany: 27 Czerwiec 2012 17:13

Potwory kontra Obcy / Monsters vs. Aliens (2009) MULTI.1080p.BluRay.x264-rahab / POLSKI DUBBING

General
Format : Matroska
Format version : Version 2
File size : 4.36 GiB
Duration : 1h 30mn
Overall bit rate : 6 901 Kbps
Video
Format/Info : Advanced Video Codec
Format profile : High@L4.1
Duration : 1h 30mn
Bit rate : 5 556 Kbps
Width : 1 920 pixels
Height : 816 pixels
Display aspect ratio : 2.35:1
Frame rate : 25.000 fps
Stream size : 3.43 GiB (79%)
Writing library : x264 core 115 r1995 c1e60b9
Language : English
Audio #1
Format : AC-3
Duration : 1h 30mn
Bit rate : 448 Kbps
Channel(s) : 6 channels
Stream size : 290 MiB (6%)
Language : Polish
Audio #2
Format : AC-3
Duration : 1h 30mn
Bit rate : 448 Kbps
Channel(s) : 6 channels
Stream size : 290 MiB (6%)
Language : German
Audio #3
Format : AC-3
Duration : 1h 30mn
Bit rate : 448 Kbps
Channel(s) : 6 channels
Stream size : 290 MiB (6%)
Language : English
Language : Polish



Uwaga! Linki nie zakodowane tylko dla zarejestrowanych użytkowników!

Nie masz konta? Zarejestruj się za darmo!
----------------
Links are not encoded only for registered users only! Plese login or register!


Informacje

Jeżeli chcesz skomentować artykuł musisz być zarejestrowany na stronie.