EXSite.pl - Portal ze wszystkim Mamy tutaj wszystko

NIE MASZ JESZCZE KONTA? ZAREJESTRUJ SIĘ ZA DARMO!   
Przypomnij hasło X

Jak wytresować smoka / How to Train Your Dragon (2010) MULTI.1080p.BluRay.x264-rahab / POLSKI DUBBING

Dodał: CrashRed 30 Grudzień 2011 18:51


Jak wytresować smoka / How to Train Your Dragon (2010) MULTI.1080p.BluRay.x264-rahab / POLSKI DUBBING

Jak wytresować smoka / How to Train Your Dragon (2010) MULTI.1080p.BluRay.x264-rahab / POLSKI DUBBING

Jak wytresować smoka / How to Train Your Dragon (2010) MULTI.1080p.BluRay.x264-rahab / POLSKI DUBBING
http://www.filmweb.pl/film/Jak+wytresowa%C4%87+smoka-2010-331014

czas trwania: 1 godz. 38 min.
gatunek: Animacja, Familijny, Fantasy, Przygodowy
premiera: 9 kwietnia 2010 (Polska) 2010-04-09 18 marca 2010 (świat) 2010-03-18
produkcja: USA
reżyseria: Dean DeBlois, Chris Sanders
scenariusz: Dean DeBlois, Chris Sanders

Producenci "Shreka", „Madagaskaru" i „Kung Fu Pandy" przedstawiają film na podstawie książki Cressidy Cowell „Jak wytresować smoka", której akcja rozgrywa się w świecie Wikingów i dzikich smoków. Bohaterem filmu jest nastoletni Wiking mieszkający na wyspie Berk, gdzie walki ze smokami są codziennością. Zbliża się właśnie czas inicjacji i jedyna szansa na udowodnienie plemieniu i ojcu swojej wartości. Kiedy jednak okazuje się, że zamiast wytresować smoka, nastolatek zaprzyjaźnia się z nim, cały jego świat staje na głowie.


Format : Matroska
File size : 4.36 GiB
Duration : 1h 37mn
Overall bit rate : 6 384 Kbps
Video
Format/Info : Advanced Video Codec
Format profile : High@L4.1
Duration : 1h 37mn
Bit rate : 5 229 Kbps
Width : 1 920 pixels
Height : 816 pixels
Display aspect ratio : 2.35:1
Frame rate : 23.976 fps
Stream size : 3.49 GiB (80%)
Writing library : x264 core 115 r1995 c1e60b9
Language : English
Audio #1
Format : AC-3
Duration : 1h 37mn
Bit rate mode : Constant
Bit rate : 384 Kbps
Channel(s) : 6 channels
Stream size : 269 MiB (6%)
Language : Polish
Audio #2
Format : AC-3
Duration : 1h 37mn
Bit rate : 384 Kbps
Channel(s) : 6 channels
Stream size : 269 MiB (6%)
Language : German
Audio #3
Format : AC-3
Duration : 1h 37mn
Bit rate mode : Constant
Bit rate : 384 Kbps
Channel(s) : 6 channels
Stream size : 269 MiB (6%)
Language : English



Jak wytresować smoka / How to Train Your Dragon (2010) MULTI.1080p.BluRay.x264-rahab / POLSKI DUBBING
Uwaga! Linki nie zakodowane tylko dla zarejestrowanych użytkowników!

Nie masz konta? Zarejestruj się za darmo!
----------------
Links are not encoded only for registered users only! Plese login or register!



Użytkownik VIP

CrashRedVIP

#1 | Dodany: 30 Grudzień 2011 18:51

ok
Użytkownik VIP

SaipherUżytkownik

#2 | Dodany: 30 Grudzień 2011 23:23

thx
Flynn Lives !
Użytkownik VIP

bodziozaqwsxUżytkownik

#3 | Dodany: 30 Grudzień 2011 23:31

Gdzie jest blu-ray. Nie oszukuj ludzi nie dajesz blu!!!!
Użytkownik VIP

CrashRedVIP

#4 | Dodany: 30 Grudzień 2011 23:42

bodziozaqwsx,
OJ COS BREDZISZ KOLEGO, chyba sie zaczęło świętować za wcześnie i coś do główki uderzyło, jak przez 2 lata obecności na stronie nie zna sie jego zasad to tylko mozna współczuć inteligencji , coz więcej napisać...
Użytkownik VIP

tajson49Użytkownik

#5 | Dodany: 31 Grudzień 2011 23:08

ok
Użytkownik VIP

UploadereQVIP

#6 | Dodany: 29 Marzec 2013 20:57

Jak wytresować smoka / How to Train Your Dragon (2010)
DubPL.m720p.BluRay.x264 | Dubbing PL

Dane techniczne :
Format : Matroska
File size : 1.92 GiB
Duration : 1h 37mn
Overall bit rate : 2 806 Kbps

Video
ID : 1
Format : AVC
Bit rate : 2 302 Kbps
Width : 1 280 pixels
Height : 544 pixels
Display aspect ratio : 2.35:1
Frame rate : 23.976 fps

Audio
ID : 2
Format : AC-3
Bit rate : 448 Kbps
Channel(s) : 6 channels
Language : Polish


DOWNLOAD LiNKS - 1PART=1024MB:
10% danych naprawczych || Można pobierać na przemian

http://catshare.net/iSP6nBW5zUXmW9VT/Jak.Wytresowac.Smoka.2010.PLDub.m720p.BluRay.x264.part1.rar
http://catshare.net/9t7z6wcclUUfXb9x/Jak.Wytresowac.Smoka.2010.PLDub.m720p.BluRay.x264.part2.rar
http://catshare.net/KFvfyd31cD5c1YG4/Jak.Wytresowac.Smoka.2010.PLDub.m720p.BluRay.x264.part3.rar

http://rapidgator.net/file/1b502d2d8330d4212b65ab03909b36f8/Jak.Wytresowac.Smoka.2010.PLDub.m720p.BluRay.x264.part1.rar.html
http://rapidgator.net/file/908cafee274916f333791c8a43053a8f/Jak.Wytresowac.Smoka.2010.PLDub.m720p.BluRay.x264.part2.rar.html
http://rapidgator.net/file/21e4d5d18a803c19e0003bb4c1760ce7/Jak.Wytresowac.Smoka.2010.PLDub.m720p.BluRay.x264.part3.rar.html

http://turbobit.net/tvn39lf0yhjz/Jak.Wytresowac.Smoka.2010.PLDub.m720p.BluRay.x264.part1.rar.html
http://turbobit.net/o9hsnp8v408d/Jak.Wytresowac.Smoka.2010.PLDub.m720p.BluRay.x264.part2.rar.html
http://turbobit.net/q1d9e668fbix/Jak.Wytresowac.Smoka.2010.PLDub.m720p.BluRay.x264.part3.rar.html


Hasło :
brak

Informacje

Jeżeli chcesz skomentować artykuł musisz być zarejestrowany na stronie.