EXSite.pl - Portal ze wszystkim Mamy tutaj wszystko

NIE MASZ JESZCZE KONTA? ZAREJESTRUJ SIĘ ZA DARMO!   
Przypomnij hasło X

Złoty kompas / The Golden Compass (2007) PL.720p.BluRay.x264-Crash / POLSKI LEKTOR

Dodał: CrashRed 30 Grudzień 2011 19:15


Złoty kompas / The Golden Compass (2007) PL.720p.BluRay.x264-Crash / POLSKI LEKTOR

Złoty kompas / The Golden Compass (2007) PL.720p.BluRay.x264-Crash / POLSKI LEKTOR

Złoty kompas / The Golden Compass (2007) PL.720p.BluRay.x264-Crash / POLSKI LEKTOR
[URL]http://www.filmweb.pl/Zloty.Kompas[/UL]

czas trwania: 2 godz.
gatunek: Fantasy, Przygodowy
premiera: 6 grudnia 2007 (Polska) 2007-12-06 27 listopada 2007 (świat) 2007-11-27
produkcja: USA, Wielka Brytania
reżyseria: Chris Weitz
scenariusz: Chris Weitz

W samym sercu angielskiego Oksfordu dorasta osierocona przez rodziców dziewczynka imieniem Lyra. W jej świecie, równoległym do naszego, magia, nauka i teologia są ze sobą ściśle powiązane, a każdy człowiek posiada własnego towarzysza, połączonego z nim niedziwialną więzią - dajmona. Lyra wiedzie spokojne życie, aż do czasu, kiedy najbliższy jej przyjaciel, chłopiec kuchenny imieniem Roger z kolegium, w którym dziewczynka się wychowuje zostaje porwany, przez postacie, zwane przez wszystkich
grobalami" - wiele dzieci zostało przez nich uprowadzonych i nikt ich nigdy nie odnalazł. Dziewczynka wyrusza na poszukiwania, które zawiodą ją na daleką Północ. Przed wyjazdem otrzymuje niezwykłe urządzenie - czytnik symboli, tzw. "aletheiometr", który posiada zdolnośc odpowiedzi na każde pytanie. Podczas swojej podróży spotyka wiele ciekawych postaci - Cyganów, pancernego niedźwiedzia Iorka, czarownice. Uprowadzone dzieci są poddawane strasznym eksperymentom, mającym związek z tajemniczym Pyłem. Lyra odegra w całej tej historii ogromną rolę, pomimo, że nie zdaje sobie z tego jeszcze sprawy.


Złoty kompas / The Golden Compass (2007) PL.720p.BluRay.x264-Crash / POLSKI LEKTOR
Złoty kompas / The Golden Compass (2007) PL.720p.BluRay.x264-Crash / POLSKI LEKTOR

Format : Matroska
File size : 4.71 GiB
Duration : 1h 53mn
Overall bit rate : 5 947 Kbps
Video
Format/Info : Advanced Video Codec
Format profile : High@L4.1
Duration : 1h 53mn
Bit rate : 5 500 Kbps
Width : 1 280 pixels
Height : 534 pixels
Display aspect ratio : 2.35:1
Frame rate : 23.976 fps
Stream size : 4.26 GiB (90%)
Title : Video 23.976 fps @ 5500 kbps - EbP
Writing library : x264 core 118 r2085 8a62835
Language : English
Audio
Format : AC-3
Duration : 1h 53mn
Bit rate mode : Constant
Bit rate : 448 Kbps
Channel(s) : 6 channels
Stream size : 363 MiB (8%)
Title : Crash-Polski



Złoty kompas / The Golden Compass (2007) PL.720p.BluRay.x264-Crash / POLSKI LEKTOR
Uwaga! Linki nie zakodowane tylko dla zarejestrowanych użytkowników!

Nie masz konta? Zarejestruj się za darmo!
----------------
Links are not encoded only for registered users only! Plese login or register!


Złoty kompas / The Golden Compass (2007) PL.720p.BluRay.x264-Crash / POLSKI LEKTOR
Uwaga! Linki nie zakodowane tylko dla zarejestrowanych użytkowników!

Nie masz konta? Zarejestruj się za darmo!
----------------
Links are not encoded only for registered users only! Plese login or register!

Użytkownik VIP

CrashRedVIP

#1 | Dodany: 30 Grudzień 2011 19:15

ok
Użytkownik VIP

tajson49Użytkownik

#2 | Dodany: 31 Grudzień 2011 23:06

laughing

Informacje

Jeżeli chcesz skomentować artykuł musisz być zarejestrowany na stronie.