EXSite.pl - Portal ze wszystkim Mamy tutaj wszystko

NIE MASZ JESZCZE KONTA? ZAREJESTRUJ SIĘ ZA DARMO!   
Przypomnij hasło X

40-letni prawiczek / The 40 Year-Old Virgin (2005) PL.720p.BluRay.x264-Crash / POLSKI LEKTOR +mHD

Dodał: CrashRed 14 Styczeń 2012 18:17


40-letni prawiczek / The 40 Year-Old Virgin (2005) PL.720p.BluRay.x264-Crash / POLSKI LEKTOR

40-letni prawiczek / The 40 Year-Old Virgin (2005) PL.720p.BluRay.x264-Crash / POLSKI LEKTOR +mHD

40-letni prawiczek / The 40 Year-Old Virgin (2005) PL.720p.BluRay.x264-Crash / POLSKI LEKTOR +mHD
http://www.filmweb.pl/40.Letni.Prawiczek

czas trwania: 1 godz. 56 min.
gatunek: Komedia rom.
premiera: 28 października 2005 (Polska) 2005-10-28 11 sierpnia 2005 (świat) 2005-08-11
produkcja: USA
reżyseria: Judd Apatow
scenariusz: Judd Apatow, Steve Carell

Bohaterem filmu jest bardzo nieśmiały 40-letni Andy, który nie ma zbyt dobrych relacji z kobietami i mimo swojego wieku wciąż jest jeszcze prawiczkiem. Przyjaciele postanawiają mu pomóc.


40-letni prawiczek / The 40 Year-Old Virgin (2005) PL.720p.BluRay.x264-Crash / POLSKI LEKTOR +mHD
40-letni prawiczek / The 40 Year-Old Virgin (2005) PL.720p.BluRay.x264-Crash / POLSKI LEKTOR +mHD

Format : Matroska
File size : 5.41 GiB
Duration : 2h 12mn
Overall bit rate : 5 849 Kbps
Video
Format/Info : Advanced Video Codec
Format profile : High@L4.1
Duration : 2h 12mn
Bit rate : 5 462 Kbps
Width : 1 280 pixels
Height : 688 pixels
Display aspect ratio : 1.860
Frame rate : 23.976 fps
Stream size : 4.95 GiB (91%)
Writing library : x264 core 65 r1040M 1591275
Language : English
Audio
Format : AC-3
Duration : 2h 12mn
Bit rate mode : Constant
Bit rate : 384 Kbps
Channel(s) : 2 channels
Stream size : 364 MiB (7%)
Title : Crash-Polski
V.S : CrHD



40-letni prawiczek / The 40 Year-Old Virgin (2005) PL.720p.BluRay.x264-Crash / POLSKI LEKTOR +mHD
Uwaga! Linki nie zakodowane tylko dla zarejestrowanych użytkowników!

Nie masz konta? Zarejestruj się za darmo!
----------------
Links are not encoded only for registered users only! Plese login or register!






40-letni prawiczek / The 40 Year-Old Virgin (2005) PL.m720p.BluRay.x264-Crash / POLSKI LEKTOR

Format : Matroska
File size : 3.02 GiB
Duration : 2h 12mn
Overall bit rate : 3 259 Kbps
Video
Format/Info : Advanced Video Codec
Format profile : High@L4.1
Duration : 2h 12mn
Bit rate : 2 872 Kbps
Width : 1 280 pixels
Height : 692 pixels
Display aspect ratio : 1.850
Frame rate : 23.976 fps
Stream size : 2.60 GiB (86%)
Writing library : x264 core 114 r1924 08d04a4
Language : English
Audio
Format : AC-3
Duration : 2h 12mn
Bit rate mode : Constant
Bit rate : 384 Kbps
Channel(s) : 2 channels
Stream size : 364 MiB (12%)
Title : Crash-Polski

S.V : The 40 Year Old Virgin [2005] m720p ~*cyke2702@aRiL*~

Uwaga! Linki nie zakodowane tylko dla zarejestrowanych użytkowników!

Nie masz konta? Zarejestruj się za darmo!
----------------
Links are not encoded only for registered users only! Plese login or register!




Użytkownik VIP

CrashRedVIP

#1 | Dodany: 30 Grudzień 2011 20:23

ok
Użytkownik VIP

dyskoteka1987Trial Uploader

#2 | Dodany: 31 Grudzień 2011 09:36

thx
Użytkownik VIP

tajson49Użytkownik

#3 | Dodany: 31 Grudzień 2011 23:05

laughing
Użytkownik VIP

caroliscoolUżytkownik

#4 | Dodany: 17 Marzec 2014 18:17

Treść komentarza została edytowana z powodu naruszenia/łamania regulaminu/reguł.
***Brak dodatkowego mirrora / Brak hide***Regulacje kwestii remote***

Suttree

Informacje

Jeżeli chcesz skomentować artykuł musisz być zarejestrowany na stronie.