EXSite.pl - Portal ze wszystkim Mamy tutaj wszystko

NIE MASZ JESZCZE KONTA? ZAREJESTRUJ SIĘ ZA DARMO!   
Przypomnij hasło X

Bez twarzy / Face/Off (1997) PL.720p.BluRay.x264-Crash / POLSKI LEKTOR

Dodał: CrashRed 31 Grudzień 2011 14:25


Bez twarzy / Face/Off (1997) PL.720p.BluRay.x264-Crash / POLSKI LEKTOR

Bez twarzy / Face/Off (1997) PL.720p.BluRay.x264-Crash / POLSKI LEKTOR

Bez twarzy / Face/Off (1997) PL.720p.BluRay.x264-Crash / POLSKI LEKTOR
http://www.filmweb.pl/film/Bez+twarzy-1997-1028

czas trwania: 2 godz. 18 min.
gatunek: Sensacyjny, Thriller
premiera: 24 października 1997 (Polska) 1997-10-24 27 czerwca 1997 (świat) 1997-06-27
reżyseria: John Woo
scenariusz: Mike Werb, Michael Colleary

Castor Troy jest terrorystą, który organizuje zamach na wrogiego sobie agenta Seana Archera. Niestety ofiarą zamachu jest kilkuletni synek agenta. Sean bardzo przeżywa jego śmierć. Przestaje interesować się domem, żoną i dorastającą córką. Tymczasem nieuchwytny terrorysta podkłada w centrum Los Angeles bombę. Udaje się go złapać, ale trzeba zlokalizować ładunek. Aby go odnaleźć Sean musi przejąć twarz i osobowość bandyty. Czasu jest mało...


Format : Matroska
File size : 5.11 GiB
Duration : 2h 19mn
Overall bit rate : 5 264 Kbps
Video
Format/Info : Advanced Video Codec
Format profile : High@L5.1
Duration : 2h 19mn
Bit rate : 4 967 Kbps
Nominal bit rate : 6 113 Kbps
Width : 1 280 pixels
Height : 544 pixels
Display aspect ratio : 2.35:1
Frame rate : 23.976 fps
Bits/(Pixel*Frame) : 0.298
Stream size : 4.82 GiB (94%)
Writing library : x264 core 54
Language : English
Audio
Format/Info : Audio Coding 3
Duration : 2h 19mn
Bit rate mode : Constant
Bit rate : 192 Kbps
Channel(s) : 2 channels
Stream size : 191 MiB (4%)
Title : Crash-Polski



Bez twarzy / Face/Off (1997) PL.720p.BluRay.x264-Crash / POLSKI LEKTOR
Uwaga! Linki nie zakodowane tylko dla zarejestrowanych użytkowników!

Nie masz konta? Zarejestruj się za darmo!
----------------
Links are not encoded only for registered users only! Plese login or register!



Użytkownik VIP

CrashRedVIP

#1 | Dodany: 31 Grudzień 2011 14:26

ormat : Matroska
File size : 11.3 GiB
Duration : 2h 19mn
Overall bit rate : 11.7 Mbps
Video
Format/Info : Advanced Video Codec
Format profile : High@L4.1
Duration : 2h 19mn
Bit rate : 11.5 Mbps
Width : 1 920 pixels
Height : 816 pixels
Display aspect ratio : 2.35:1
Frame rate : 23.976 fps
Stream size : 10.9 GiB (96%)
Writing library : x264 core 65 r998M 6768543
Language : English
Audio
Format : AC-3
Duration : 2h 19mn
Bit rate mode : Constant
Bit rate : 192 Kbps
Channel(s) : 2 channels
Stream size : 191 MiB (2%)
Title : Crash-Polski



Bez twarzy / Face/Off (1997) PL.BluRay.1080p.x264.-Crash / POLSKI LEKTOR
Uwaga! Linki nie zakodowane tylko dla zarejestrowanych użytkowników!

Nie masz konta? Zarejestruj się za darmo!
----------------
Links are not encoded only for registered users only! Plese login or register!

Użytkownik VIP

dyskoteka1987Trial Uploader

#2 | Dodany: 1 Styczeń 2012 22:27

thx thx thx
Użytkownik VIP

gitaraelektrycznaUżytkownik

#3 | Dodany: 11 Styczeń 2012 21:09

ok thx
Użytkownik VIP

qgrzegorzGość

#4 | Dodany: 12 Luty 2012 17:04

Bez twarzy / Face/Off (1997) PL.BluRay.1080p.x264.-Crash / POLSKI LEKTOR

Dane Techniczne:

General           : Face.Off.1997.PL.BluRay.1080p.x264.-Crash.mkv
Format            : Matroska at 11,7 Mb/s
Length            : 11,3 GB for 2h 19 min. 0s 448ms

Video #0          : AVC at 11,5 Mb/s
Aspect            : 1920 x 816 (2.353) at 23.976 fps

Audio #0          : AC-3 at 192 Kb/s
Infos             : 2 kanały, 48,0 KHz


INFO Lektor: lektor profesjonalny
Źródło obrazu: *Blu-ray/DVD*


Opis uploadu:
wielkość całości:12.60 GB
rodzaj kompresji: RAR
zawartość uploadu: plik .mkv
wersja językowa: PL
Dane naprawcze:10%


Download:

Uwaga! Linki nie zakodowane tylko dla zarejestrowanych użytkowników!

Nie masz konta? Zarejestruj się za darmo!
----------------
Links are not encoded only for registered users only! Plese login or register!


HASŁO:

filmik


Bez twarzy / Face/Off (1997) PL.720p.BluRay.x264-Crash / POLSKI LEKTOR

Dane Techniczne:

General           : Face.Off.1997.PL.720p.BluRay.x264-Crash.mkv
Format            : Matroska at 5.264 Kb/s
Length            : 5,11 GB for 2h 19 min. 0s 448ms

Video #0          : AVC at 4.967 Kb/s
Aspect            : 1280 x 544 (2.353) at 23.976 fps

Audio #0          : AC-3 at 192 Kb/s
Infos             : 2 kanały, 48,0 KHz


INFO Lektor: lektor profesjonalny
Źródło obrazu: *Blu-ray/DVD*


Opis uploadu:
wielkość całości:5.67 GB
rodzaj kompresji: RAR
zawartość uploadu: plik .mkv
wersja językowa: PL
Dane naprawcze:10%


Download:

Uwaga! Linki nie zakodowane tylko dla zarejestrowanych użytkowników!

Nie masz konta? Zarejestruj się za darmo!
----------------
Links are not encoded only for registered users only! Plese login or register!


HASŁO:

filmik

Martwe linki.Pisz na PW zrobie reupload.

Informacje

Jeżeli chcesz skomentować artykuł musisz być zarejestrowany na stronie.