EXSite.pl - Portal ze wszystkim Mamy tutaj wszystko

NIE MASZ JESZCZE KONTA? ZAREJESTRUJ SIĘ ZA DARMO!   
Przypomnij hasło X

Przylądek strachu / Cape Fear (1991) PL.BluRay.720p.DTS.x264-Destiny / POLSKI LEKTOR

Dodał: CrashRed 31 Grudzień 2011 15:05


Przylądek strachu / Cape Fear (1991) PL.BluRay.720p.DTS.x264-Destiny / POLSKI LEKTOR

Przylądek strachu / Cape Fear (1991) PL.BluRay.720p.DTS.x264-Destiny / POLSKI LEKTOR

Przylądek strachu / Cape Fear (1991) PL.BluRay.720p.DTS.x264-Destiny / POLSKI LEKTOR
http://www.filmweb.pl/film/Przyl%C4%85dek+strachu-1991-1032

czas trwania: 2 godz. 8 min.
gatunek: Thriller
premiera: 13 listopada 1991 (świat) 1991-11-13
reżyseria: Martin Scorsese
scenariusz: Wesley Strick, James R. Webb

Niebezpieczny psychopata Max Cady (Robert De Niro) wychodzi na wolność po czternastu latach spędzonych w więzieniu. Ma jeden cel: chce zemścić się na swym adwokacie, Samie Bowdenie (Nick Nolte) i zaczyna terroryzować jego rodzinę. Gdy Sam uświadamia sobie, że nie jest w stanie zapewnić bezpiecze?stwa swojej pięknej żonie Leigh (Jessica Lange) i kilkunastoletniej córce Danielle (Juliette Lewis), wyzywa Maxa na pojedynek na śmierć i życie, którego tłem będzie budzący grozę Przylądek Strachu.


Przylądek strachu / Cape Fear (1991) PL.BluRay.720p.DTS.x264-Destiny / POLSKI LEKTOR
Przylądek strachu / Cape Fear (1991) PL.BluRay.720p.DTS.x264-Destiny / POLSKI LEKTOR

Format : Matroska
File size : 4.72 GiB
Duration : 2h 7mn
Overall bit rate : 5 289 Kbps
Video
Format/Info : Advanced Video Codec
Format profile : High@L4.1
Duration : 2h 7mn
Bit rate : 4 838 Kbps
Width : 1 280 pixels
Height : 544 pixels
Display aspect ratio : 2.35:1
Frame rate : 23.976 fps
Stream size : 4.23 GiB (90%)
Title : DESTINY
Writing library : x264 core 102 r1666 d058f37
Language : English
Audio
Format : DTS
Duration : 2h 7mn
Bit rate mode : Constant
Bit rate : 448 Kbps
Channel(s) : 2 channels
Stream size : 409 MiB (8%)
Title : dESTINY-pOLSKI



Przylądek strachu / Cape Fear (1991) PL.BluRay.720p.DTS.x264-Destiny / POLSKI LEKTOR
Uwaga! Linki nie zakodowane tylko dla zarejestrowanych użytkowników!

Nie masz konta? Zarejestruj się za darmo!
----------------
Links are not encoded only for registered users only! Plese login or register!



Użytkownik VIP

CrashRedVIP

#1 | Dodany: 31 Grudzień 2011 15:06

ok
Użytkownik VIP

FifjorUżytkownik

#2 | Dodany: 31 Grudzień 2011 15:29

ok
Użytkownik VIP

tajson49Użytkownik

#3 | Dodany: 31 Grudzień 2011 23:02

smile

Informacje

Jeżeli chcesz skomentować artykuł musisz być zarejestrowany na stronie.