EXSite.pl - Portal ze wszystkim Mamy tutaj wszystko

NIE MASZ JESZCZE KONTA? ZAREJESTRUJ SIĘ ZA DARMO!   
Przypomnij hasło X

Van Helsing (2004) PL.720p.BluRay.x264-Crash / POLSKI LEKTOR +mHD

Dodał: CrashRed 8 Styczeń 2012 20:01


Van Helsing (2004) PL.720p.BluRay.x264-Crash / POLSKI LEKTOR

Van Helsing (2004) PL.720p.BluRay.x264-Crash / POLSKI LEKTOR  +mHD

Van Helsing (2004) PL.720p.BluRay.x264-Crash / POLSKI LEKTOR  +mHD
http://www.filmweb.pl/Van.Helsing

czas trwania: 2 godz. 12 min.
gatunek: Horror, Przygodowy
premiera: 7 maja 2004 (Polska) 2004-05-07 3 maja 2004 (świat) 2004-05-03 (więcej...)
produkcja: Czechy, USA
reżyseria: Stephen Sommers
scenariusz: Stephen Sommers

Postać profesora Abrahama Van Helsinga po raz pierwszy zaistniała w kinie w adaptacji "Drakuli" Brama Stokera z 1931 roku autorstwa Toda Browninga i od tego momentu jeszcze kilkadziesiąt razy pojawiała się na dużym ekranie. Akcja filmu Stephena Sommersa osadzona jest w drugiej połowie XIX wieku. Słynny łowca potworów, profesor Van Helsing zostaje wezwany do tajemniczej krainy w Europie Wschodniej, gdzie ma za zadanie pokonać siły zła, uosabiane przez hrabiego Drakulę, Człowieka-Wilka i monstrum
stworzone przez doktora Frankensteina. Jego asystentką zostaje piękna Anna, spadkobierczyni zacnej rodziny, od wieków prowadzącej walkę z Drakulą


Van Helsing (2004) PL.720p.BluRay.x264-Crash / POLSKI LEKTOR  +mHD
Van Helsing (2004) PL.720p.BluRay.x264-Crash / POLSKI LEKTOR  +mHD

Format : Matroska
File size : 5.46 GiB
Duration : 2h 11mn
Overall bit rate : 5 936 Kbps
Video
Format/Info : Advanced Video Codec
Format profile : High@L4.1
Duration : 2h 11mn
Bit rate : 5 553 Kbps
Width : 1 280 pixels
Height : 688 pixels
Display aspect ratio : 1.860
Frame rate : 23.976 fps
Stream size : 5.00 GiB (92%)
Title : SHiRK
Writing library : x264 core 98 r1649 c54c47d
Language : English
Audio
Format : AC-3
Duration : 2h 11mn
Bit rate mode : Constant
Bit rate : 384 Kbps
Channel(s) : 6 channels
Stream size : 362 MiB (6%)
Title : Crash-Polski



Van Helsing (2004) PL.720p.BluRay.x264-Crash / POLSKI LEKTOR  +mHD
Uwaga! Linki nie zakodowane tylko dla zarejestrowanych użytkowników!

Nie masz konta? Zarejestruj się za darmo!
----------------
Links are not encoded only for registered users only! Plese login or register!


Van Helsing (2004) PL.720p.BluRay.x264-Crash / POLSKI LEKTOR  +mHD
Uwaga! Linki nie zakodowane tylko dla zarejestrowanych użytkowników!

Nie masz konta? Zarejestruj się za darmo!
----------------
Links are not encoded only for registered users only! Plese login or register!





Van Helsing (2004) PL.m720p.BluRay.x264-Crash / POLSKI LEKTOR

Format : Matroska
File size : 2.84 GiB
Duration : 2h 11mn
Overall bit rate : 3 088 Kbps
Movie name : Van Helsing [2004] m720p ~ aRiL
Video
Format/Info : Advanced Video Codec
Format profile : High@L4.0
Duration : 2h 11mn
Bit rate mode : Variable
Bit rate : 2 702 Kbps
Maximum bit rate : 25.0 Mbps
Width : 1 280 pixels
Height : 720 pixels
Display aspect ratio : 16:9
Frame rate : 23.976 fps
Stream size : 2.43 GiB (86%)
Title : Van Helsing [2004] m720p ~*cyke2702@aRiL*~
Writing library : x264 core 114 r1924 08d04a4
Language : English
Audio
Format : AC-3
Duration : 2h 11mn
Bit rate mode : Constant
Bit rate : 384 Kbps
Channel(s) : 6 channels
Stream size : 362 MiB (12%)
Title : Destiny-Polski


Uwaga! Linki nie zakodowane tylko dla zarejestrowanych użytkowników!

Nie masz konta? Zarejestruj się za darmo!
----------------
Links are not encoded only for registered users only! Plese login or register!



Van Helsing (2004) PL.720p.BluRay.x264-Crash / POLSKI LEKTOR  +mHD
Uwaga! Linki nie zakodowane tylko dla zarejestrowanych użytkowników!

Nie masz konta? Zarejestruj się za darmo!
----------------
Links are not encoded only for registered users only! Plese login or register!


Użytkownik VIP

CrashRedVIP

#1 | Dodany: 1 Styczeń 2012 16:20

ok
Użytkownik VIP

kowalczykwoUżytkownik

#2 | Dodany: 1 Styczeń 2012 16:25

czy będzie 1080p
Lolek
Użytkownik VIP

CrashRedVIP

#3 | Dodany: 1 Styczeń 2012 16:27

kowalczykwo,
na ta chwile nie mam w planie
Użytkownik VIP

kowalczykwoUżytkownik

#4 | Dodany: 1 Styczeń 2012 17:09

ok dzięki
Lolek
Użytkownik VIP

VanDustUżytkownik

#5 | Dodany: 1 Styczeń 2012 17:52

Danke ok
Jak zwykle "klocek" słusznej jakości....
Ale ,nie chwaląc się fellow ,łącze 50MB połknie to w trymiga smile
Użytkownik VIP

zakrza201Użytkownik

#6 | Dodany: 9 Styczeń 2012 12:12

dzieki za m720p thx
Użytkownik VIP

qgrzegorzGość

#7 | Dodany: 18 Luty 2012 23:34

Van Helsing (2004)PL.1080p.BluRay.x264

Dane Techniczne:
General           : Van.Helsing.2004.PL.1080p.BluRay.x264-ELiTE.mkv
Format            : Matroska at 14,3 Mb/s
Length            : 13,2 GB for 2h 11 min. 37s 932ms

Video #0          : AVC at 13,7 Mb/s
Aspect            : 1920 x 1040 (1.846) at 23.976 fps

Audio #0          : AC-3 at 384 Kb/s
Infos             : 6 kanałów, 48,0 KHz
Language          : pl

INFO Lektor: lektor profesjonalny
Źródło obrazu: *Blu-ray/DVD*


Opis uploadu:
wielkość całości: 14.62 GB
rodzaj kompresji: .rar
zawartość uploadu: plik .mkv
wersja językowa: PL
Dane naprawcze:10%


Download:
Uwaga! Linki nie zakodowane tylko dla zarejestrowanych użytkowników!

Nie masz konta? Zarejestruj się za darmo!
----------------
Links are not encoded only for registered users only! Plese login or register!


HASŁO:

filmik

Martwe linki.Pisz na PW zrobie reupload.

Informacje

Jeżeli chcesz skomentować artykuł musisz być zarejestrowany na stronie.