EXSite.pl - Portal ze wszystkim Mamy tutaj wszystko

NIE MASZ JESZCZE KONTA? ZAREJESTRUJ SIĘ ZA DARMO!   
Przypomnij hasło X

Potwory i spółka / Monsters, Inc. (2001) MULTI.1080p.BluRay.AC3.x264-rahab / POLSKI DUBBING

Dodał: CrashRed 1 Styczeń 2012 18:53


Potwory i spółka / Monsters, Inc. (2001) MULTI.1080p.BluRay.AC3.x264-rahab / POLSKI DUBBING

Potwory i spółka / Monsters, Inc. (2001) MULTI.1080p.BluRay.AC3.x264-rahab / POLSKI DUBBING

Potwory i spółka / Monsters, Inc. (2001) MULTI.1080p.BluRay.AC3.x264-rahab / POLSKI DUBBING
http://www.filmweb.pl/Potwory.I.Spolka

czas trwania: 1 godz. 32 min.
gatunek: Animacja, Familijny, Komedia
premiera: 1 lutego 2002 (Polska) 2002-02-01 28 października 2001 (świat) 2001-10-28
reżyseria: Pete Docter, David Silverman
scenariusz: Andrew Stanton, Daniel Gerson

Film ze studia Walta Disneya zrealizowany w technice animacji komputerowej. Opowieść o niezwykłych przygodach małej dziewczynki, która trafia do fabryki... potworów, które nie są tak straszne, na jakie wyglądają i bardziej się jej boją niż ona ich.


General
Format : Matroska
Format version : Version 2
File size : 4.36 GiB
Duration : 1h 32mn
Overall bit rate : 6 765 Kbps
Video
Format/Info : Advanced Video Codec
Format profile : High@L4.1
Duration : 1h 32mn
Bit rate : 5 616 Kbps
Width : 1 920 pixels
Height : 1 080 pixels
Display aspect ratio : 16:9
Frame rate : 23.976 fps
Stream size : 3.53 GiB (81%)
Writing library : x264 core 115 r1995 c1e60b9
Language : English
Audio #1
Format : AC-3
Duration : 1h 32mn
Bit rate mode : Constant
Bit rate : 384 Kbps
Channel(s) : 6 channels
Stream size : 253 MiB (6%)
Language : Polish
Audio #2
Format : AC-3
Duration : 1h 32mn
Bit rate mode : Constant
Bit rate : 384 Kbps
Channel(s) : 6 channels
Stream size : 253 MiB (6%)
Language : German
Audio #3
Format : AC-3
Duration : 1h 32mn
Bit rate mode : Constant
Bit rate : 384 Kbps
Channel(s) : 6 channels
Stream size : 253 MiB (6%)
Language : English
Text #1
Language : Polish
Text #2
Language : English



Potwory i spółka / Monsters, Inc. (2001) MULTI.1080p.BluRay.AC3.x264-rahab / POLSKI DUBBING
Uwaga! Linki nie zakodowane tylko dla zarejestrowanych użytkowników!

Nie masz konta? Zarejestruj się za darmo!
----------------
Links are not encoded only for registered users only! Plese login or register!



Użytkownik VIP

CrashRedVIP

#1 | Dodany: 1 Styczeń 2012 18:53

ok
Użytkownik VIP

killerwUżytkownik

#2 | Dodany: 13 Październik 2013 09:42

Potwory i spółka / Monsters Inc. (2001) PLDUB.720p.BDRip.XviD.AC3-ELiTE / Dubbing PL



Dane techniczne

RELEASE DATE.....: 17.02.2013
RUNTIME..........: 01:32:15 min
AUDIO LANGUAGE...: Polish Dubbing
GENRE............: Animation | Adventure | Comedy

Video............: 3.566 Kbps XviD
Resolution.......: 1280 x 688
Frame Rate.......: 23.976 FPS
Audio............: 640 kb/s 6 chnls AC3 Polish
Subtitles........: N/A
SA...............: B-VOP,No Qpel,No GMC
Video Size.......: 2.72 GB
Source...........: Blu-ray SUB PL MULTIAUDIO [THX TG




Egofiles
Uwaga! Linki nie zakodowane tylko dla zarejestrowanych użytkowników!

Nie masz konta? Zarejestruj się za darmo!
----------------
Links are not encoded only for registered users only! Plese login or register!

Informacje

Jeżeli chcesz skomentować artykuł musisz być zarejestrowany na stronie.