EXSite.pl - Portal ze wszystkim Mamy tutaj wszystko

NIE MASZ JESZCZE KONTA? ZAREJESTRUJ SIĘ ZA DARMO!   
Przypomnij hasło X

Don Chichot / Donkey Xote (2007) MULTI.1080p.BluRay.x264-rahab / POLSKI DUBBING

Dodał: CrashRed 1 Styczeń 2012 19:25


Don Chichot / Donkey Xote (2007) MULTI.1080p.BluRay.x264-rahab / POLSKI DUBBING

Don Chichot / Donkey Xote (2007) MULTI.1080p.BluRay.x264-rahab / POLSKI DUBBING

Don Chichot / Donkey Xote (2007) MULTI.1080p.BluRay.x264-rahab / POLSKI DUBBING
http://www.filmweb.pl/Don.Chichot

czas trwania: 1 godz. 20 min.
gatunek: Animacja, Familijny, Komedia
premiera: 4 stycznia 2008 (Polska) 2008-01-04 20 listopada 2007 (świat) 2007-11-20
produkcja: Hiszpania, Włochy
reżyseria: Jose Pozo
scenariusz: Angel E. Pariente, Miguel de Cervantes y Saavedra

Animowana opowieść o Don Kichocie i Sancho Pansie. Osiołek Rucio opowiada prawdziwą historię o Don Kichocie. Według niego nie był on szalonym rycerzem, tylko bardzo inteligentnym, wesołym i pełnym życia kompanem. Wraz z rumakiem Rosynantem i wiernym pomocnikiem Sancho Pansą, wyruszają na pojedynek z "Rycerzem z Księżyca?, od wyniku którego zależeć będzie wszystko. Na ich drodze stanie jednak wielu wrogów, którym będą musieli stawić czoła.


General
Format : Matroska
File size : 4.36 GiB
Duration : 1h 24mn
Overall bit rate : 7 436 Kbps
Video
Format/Info : Advanced Video Codec
Format profile : High@L4.1
Duration : 1h 24mn
Bit rate : 6 286 Kbps
Width : 1 920 pixels
Height : 816 pixels
Display aspect ratio : 2.35:1
Frame rate : 25.000 fps
Stream size : 3.60 GiB (83%)
Writing library : x264 core 115 r1995 c1e60b9
Language : English
Audio #1
Format : AC-3
Duration : 1h 24mn
Bit rate mode : Constant
Bit rate : 384 Kbps
Channel(s) : 6 channels
Stream size : 231 MiB (5%)
Language : Polish
Audio #2
Format : AC-3
Duration : 1h 24mn
Bit rate mode : Constant
Bit rate : 384 Kbps
Channel(s) : 6 channels
Stream size : 231 MiB (5%)
Language : German
Audio #3
Format : AC-3
Duration : 1h 24mn
Bit rate mode : Constant
Bit rate : 384 Kbps
Channel(s) : 6 channels
Stream size : 231 MiB (5%)
Language : English



Don Chichot / Donkey Xote (2007) MULTI.1080p.BluRay.x264-rahab / POLSKI DUBBING
Uwaga! Linki nie zakodowane tylko dla zarejestrowanych użytkowników!

Nie masz konta? Zarejestruj się za darmo!
----------------
Links are not encoded only for registered users only! Plese login or register!



Użytkownik VIP

CrashRedVIP

#1 | Dodany: 1 Styczeń 2012 19:25

ok
Użytkownik VIP

xxrasherxxUżytkownik

#2 | Dodany: 16 Maj 2012 20:10

Don Chichot / Donkey Xote (2007) 1080p.BluRay.x264.AC3 [Dubbing PL/DE/EN]


Dane techniczne:
Format: Matroska
File size: 4.36 GiB
Duration: 1h 24mn
Overall bit rate: 7 436 Kbps


Video
Format: AVC
Format profile: High@L4.1
Bit rate: 6 286 Kbps
Width: 1 920 pixels
Height: 816 pixels
Display aspect ratio: 2.35:1
Frame rate: 25.000 fps


Audio #1
Format: AC-3
Bit rate: 384 Kbps
Channel(s): 6 channels
Sampling rate: 48.0 KHz
Language: Polish


Audio #2
Format: AC-3
Duration: 1h 24mn
Bit rate: 384 Kbps
Channel(s): 6 channels
Sampling rate: 48.0 KHz
Language: German


Audio #3
Format: AC-3
Duration: 1h 24mn
Bit rate: 384 Kbps
Channel(s): 6 channels
Sampling rate: 48.0 KHz
Language: English


Opis uploadu:
Wielkość całości: 4,46 Gb
Rodzaj kompresji: rar
Zawartość Uploadu: .mkv
wersja językowa: PL/Eng/Ger
Dane naprawcze: brak


Download // NO PASS
http://download.hellshare.com/donkey-x-1080p/don-chichot-2007-ac3-1080p-bluray-x264-part1-rar/7336076
http://download.hellshare.com/donkey-x-1080p/don-chichot-2007-ac3-1080p-bluray-x264-part2-rar/7336072
http://download.hellshare.com/donkey-x-1080p/don-chichot-2007-ac3-1080p-bluray-x264-part3-rar/7336067
http://download.hellshare.com/donkey-x-1080p/don-chichot-2007-ac3-1080p-bluray-x264-part4-rar/7336074
http://download.hellshare.com/donkey-x-1080p/don-chichot-2007-ac3-1080p-bluray-x264-part5-rar/7336034

Informacje

Jeżeli chcesz skomentować artykuł musisz być zarejestrowany na stronie.