EXSite.pl - Portal ze wszystkim Mamy tutaj wszystko

NIE MASZ JESZCZE KONTA? ZAREJESTRUJ SIĘ ZA DARMO!   
Przypomnij hasło X

Kurczak Mały / Chicken Little (2005) MULTI.1080p.BluRay.x264-rahab / POLSKI DUBBING

Dodał: CrashRed 1 Styczeń 2012 19:55


Kurczak Mały / Chicken Little (2005) MULTI.1080p.BluRay.x264-rahab / POLSKI DUBBING

Kurczak Mały / Chicken Little (2005) MULTI.1080p.BluRay.x264-rahab / POLSKI DUBBING

Kurczak Mały / Chicken Little (2005) MULTI.1080p.BluRay.x264-rahab / POLSKI DUBBING
http://www.filmweb.pl/Kurczak.Maly

czas trwania: 1 godz. 17 min.
gatunek: Animacja, Familijny, Komedia
premiera: 11 listopada 2005 (Polska) 2005-11-11 4 listopada 2005 (świat) 2005-11-04
produkcja: USA
reżyseria: Mark Dindal
scenariusz: Steve Bencich, Ron Friedman

Historia Kurczaka Małego, wyszydzonego przez wszystkich za to, że spadające mu na głowę żołędzie wziął za kawałki nieba. Kurczak bardzo chciałby odzyskać utracony szacunek. Kiedy prawie mu się to udaje, rzeczywiście kawałek nieba ląduje mu na głowie. Okazuje się, że naszej planecie zagraża niebezpiecze?stwo z kosmosu. Kiedy latające talerze przybywają do miasta, nikt nie wie, co robić. Mieszka?cy wpadają w panikę. Kurczak Mały wraz z grupą przyjaciół postanawia ruszyć światu na ratunek. Losy Ziemi nagle zaczynają zależeć od świnki, rybki, kaczki oraz niewyrośniętego kurczaka.


General
Format : Matroska
Format version : Version 2
File size : 4.36 GiB
Duration : 1h 20mn
Overall bit rate : 7 719 Kbps
Video
Format/Info : Advanced Video Codec
Format profile : High@L4.1
Duration : 1h 20mn
Bit rate : 6 566 Kbps
Width : 1 920 pixels
Height : 1 080 pixels
Display aspect ratio : 16:9
Frame rate : 23.976 fps2
Stream size : 3.63 GiB (83%)
Writing library : x264 core 116 r2074 2641b9e
Language : English
Audio #1
Format : AC-3
Duration : 1h 20mn
Bit rate : 384 Kbps
Channel(s) : 6 channels
Stream size : 222 MiB (5%)
Language : Polish
Audio #2
Format : AC-3
Duration : 1h 20mn
Bit rate mode : Constant
Bit rate : 384 Kbps
Channel(s) : 6 channels
Stream size : 222 MiB (5%)
Language : German
Audio #3
Format : AC-3
Duration : 1h 20mn
Bit rate mode : Constant
Bit rate : 384 Kbps
Channel(s) : 6 channels
Stream size : 222 MiB (5%)
Language : English



Kurczak Mały / Chicken Little (2005) MULTI.1080p.BluRay.x264-rahab / POLSKI DUBBING
Uwaga! Linki nie zakodowane tylko dla zarejestrowanych użytkowników!

Nie masz konta? Zarejestruj się za darmo!
----------------
Links are not encoded only for registered users only! Plese login or register!


Kurczak Mały / Chicken Little (2005) MULTI.1080p.BluRay.x264-rahab / POLSKI DUBBING
Uwaga! Linki nie zakodowane tylko dla zarejestrowanych użytkowników!

Nie masz konta? Zarejestruj się za darmo!
----------------
Links are not encoded only for registered users only! Plese login or register!

Użytkownik VIP

CrashRedVIP

#1 | Dodany: 1 Styczeń 2012 19:55

ok

Informacje

Jeżeli chcesz skomentować artykuł musisz być zarejestrowany na stronie.