EXSite.pl - Portal ze wszystkim Mamy tutaj wszystko

NIE MASZ JESZCZE KONTA? ZAREJESTRUJ SIĘ ZA DARMO!   
Przypomnij hasło X

Sezon na misia 1-3 / Open Season 1-3 (2006-2010) Multi.AC3.1080p.BluRay.x264-rahab / POLSKI DUBBING

Dodał: CrashRed 14 Styczeń 2012 15:59


Sezon na misia / Open Season (2006) Multi.AC3.1080p.BluRay.x264-rahab / POLSKI DUBBING

Sezon na misia 1-3 / Open Season 1-3  (2006-2010) Multi.AC3.1080p.BluRay.x264-rahab / POLSKI DUBBING

Sezon na misia 1-3 / Open Season 1-3  (2006-2010) Multi.AC3.1080p.BluRay.x264-rahab / POLSKI DUBBING
http://www.filmweb.pl/Sezon.Na.Misia

czas trwania: 1 godz. 23 min.
gatunek: Animacja, Familijny, Komedia
premiera: 13 października 2006 (Polska) 2006-10-13 29 września 2006 (świat) 2006-09-29
produkcja: USA
reżyseria: Roger Allers, Jill Culton
scenariusz: Steve Bencich, Ron Friedman

Boguś wiedzie idealne życie. W spokojnym miasteczku Timberline, genialny niedźwiedź grizzly korzysta z wszelkich możliwych przywilejów będąc pod opieką przybranej matki Beth strażniczki parku, która kiedyś go uratowała. Boguś delektuje się też urokami sławy, jest bowiem gwiazdą przedstawie? organizowanych przez Beth w miejskim amfiteatrze. To właśnie w garażu Beth, Boguś ogląda swoje ulubione programy telewizyjne, jada osiem razy dziennie i śpi w wygodnym łóżku z misiem-maskotką Dinkelmanem.
Tak, życie Bogusia wydaje się być idealne - do momentu, kiedy pojawia się w nim Elliot. Pierwsza wielka produkcja animowana Sony Pictures w technice CGI.


General
Format : Matroska
File size : 4.35 GiB
Duration : 1h 26mn
Overall bit rate : 7 217 Kbps
Video
Format/Info : Advanced Video Codec
Format profile : High@L4.1
Duration : 1h 26mn
Bit rate : 6 088 Kbps
Width : 1 920 pixels
Height : 1 080 pixels
Display aspect ratio : 16:9
Frame rate : 23.976 fps
Stream size : 3.57 GiB (82%)
Writing library : x264 core 115 r1995 c1e60b9
Language : English
Audio #1
Format : AC-3
Duration : 1h 26mn
Bit rate : 384 Kbps
Channel(s) : 6 channels
Stream size : 237 MiB (5%)
Language : Polish
Audio #2
Format : AC-3
Duration : 1h 26mn
Bit rate : 384 Kbps
Channel(s) : 6 channels
Stream size : 237 MiB (5%)
Language : German
Audio #3
Format : AC-3
Duration : 1h 26mn
Bit rate mode : Constant
Bit rate : 384 Kbps
Channel(s) : 6 channels
Stream size : 237 MiB (5%)
Language : English



Sezon na misia 1-3 / Open Season 1-3  (2006-2010) Multi.AC3.1080p.BluRay.x264-rahab / POLSKI DUBBING
Uwaga! Linki nie zakodowane tylko dla zarejestrowanych użytkowników!

Nie masz konta? Zarejestruj się za darmo!
----------------
Links are not encoded only for registered users only! Plese login or register!


Sezon na misia 1-3 / Open Season 1-3  (2006-2010) Multi.AC3.1080p.BluRay.x264-rahab / POLSKI DUBBING
Uwaga! Linki nie zakodowane tylko dla zarejestrowanych użytkowników!

Nie masz konta? Zarejestruj się za darmo!
----------------
Links are not encoded only for registered users only! Plese login or register!






Sezon na misia 2 / Open Season 2 (2008) Multi.AC3.1080p.BluRay.x264-rahab / POLSKI DUBBING

Sezon na misia 1-3 / Open Season 1-3  (2006-2010) Multi.AC3.1080p.BluRay.x264-rahab / POLSKI DUBBING

http://www.filmweb.pl/film/Sezon+na+misia+2-2008-469759

czas trwania: 1 godz. 16 min.
gatunek: Animacja, Familijny, Komedia
premiera: 24 września 2008 (świat) 2008-09-24
produkcja: USA
reżyseria: Matthew O'Callaghan, Todd Wilderman
scenariusz: David I. Stern

Po całkowitym zauroczeniu Gizelą, zakochany po uszy Elliot napotyka na przeciwności w drodze do ołtarza. Wszystko na skutek porwania Pana Kabanosa przez grupę rozpieszczonych zwierzaków zdeterminowanych, by zwrócić go właścicielom. Boguś, wiewiór McSquizzy, jeż Buddy i reszta leśnych zwierzaków wprawiają w życie plan uratowania wyglądającego jak kiełbaska przyjaciela i wkrótce znajdują się na terenie obozu wroga, w samym środku świata zwierząt udomowionych. Pupile ludzi, pod dowództwem pudla
Fifi nie zamierzają jednak oddać Pana Kabanosa bez walki. Czy pudelek może RZECZYWIśCIE pokonać ważącego 450 kilogramów misia grizzly? Czy Elliot poślubi wreszcie Gizelę?


General
Unique ID : 201545494506708483071288458034579935827 (0x97A04013D621FF51B2885EA9A45A9253)
Complete name : Open.Season.2.2008.PL.DE.EN.AC3.1080p.BluRay.x264-rahab.mkv
Format : Matroska
File size : 4.36 GiB
Duration : 1h 16mn
Overall bit rate : 8 171 Kbps
Video
Format/Info : Advanced Video Codec
Format profile : High@L4.1
Duration : 1h 16mn
Bit rate : 7 021 Kbps
Width : 1 920 pixels
Height : 1 080 pixels
Display aspect ratio : 16:9
Frame rate : 23.976 fps
Stream size : 3.66 GiB (84%)
Writing library : x264 core 115 r1995 c1e60b9
Language : English
Audio #1
Format : AC-3
Duration : 1h 16mn
Bit rate mode : Constant
Bit rate : 384 Kbps
Channel(s) : 6 channels
Stream size : 210 MiB (5%)
Language : Polish
Audio #2
Format : AC-3
Duration : 1h 16mn
Bit rate mode : Constant
Bit rate : 384 Kbps
Channel(s) : 6 channels
Stream size : 210 MiB (5%)
Language : German
Audio #3
Format : AC-3
Duration : 1h 16mn
Bit rate mode : Constant
Bit rate : 384 Kbps
Channel(s) : 6 channels
Stream size : 210 MiB (5%)
Language : English

Uwaga! Linki nie zakodowane tylko dla zarejestrowanych użytkowników!

Nie masz konta? Zarejestruj się za darmo!
----------------
Links are not encoded only for registered users only! Plese login or register!


Sezon na misia 1-3 / Open Season 1-3  (2006-2010) Multi.AC3.1080p.BluRay.x264-rahab / POLSKI DUBBING
Uwaga! Linki nie zakodowane tylko dla zarejestrowanych użytkowników!

Nie masz konta? Zarejestruj się za darmo!
----------------
Links are not encoded only for registered users only! Plese login or register!


Użytkownik VIP

CrashRedVIP

#1 | Dodany: 6 Styczeń 2012 14:21

ok
Użytkownik VIP

bati101Użytkownik

#2 | Dodany: 7 Styczeń 2012 10:59

A kiedy będą pozostałe części?
Użytkownik VIP

torpedomaxUżytkownik

#3 | Dodany: 14 Styczeń 2012 16:28

Sezon na misia TRYLOGiA / Open Season TRiLOGY (2006-2010) BluRay m-720p AC3 5.1 x264-DX Dubbing PL

Sezon na misia / Open Season (2006)
General


Sezon na misia 2 / Open Season 2 (2008)
General


Sezon na misia 3 / Open Season 3 (2010)
General

Uwaga! Linki nie zakodowane tylko dla zarejestrowanych użytkowników!

Nie masz konta? Zarejestruj się za darmo!
----------------
Links are not encoded only for registered users only! Plese login or register!


Resident Evil ( 2002 - 2012 ) Kolekcja Multi.BluRay.1080p.x264.DTS-HDMA.DTS.AC3-DX Lektor i Napisy PL

http://www.exsite.pl/filmy_video_movies/filmy-hd-dvd5-dvd9/789890-kolekcja-resident-evil-2002-2012-bluray1080pduallaudiodtsac3x264-dx-engpl-napisy-pl.html

Gwiezdne wojny / Star Wars (1977-2005) THE.COMPLETE.SAGA.MULTi.HQ.1080p.BluRay.x264.DTS-HDMA.DTS.AC3-DX
LEKTOR, DUBBING i NAPISY PL


http://wklej.to/iE7tg

Informacje

Jeżeli chcesz skomentować artykuł musisz być zarejestrowany na stronie.