EXSite.pl - Portal ze wszystkim Mamy tutaj wszystko

NIE MASZ JESZCZE KONTA? ZAREJESTRUJ SIĘ ZA DARMO!   
Przypomnij hasło X

Stalowy gigant / The Iron Giant (1999) MULTI.1080p.BluRay.AC3.x264-rahab / POLSKI DUBBING

Dodał: CrashRed 6 Styczeń 2012 15:09


Stalowy gigant / The Iron Giant (1999) MULTI.1080p.BluRay.AC3.x264-rahab / POLSKI DUBBING

Stalowy gigant / The Iron Giant (1999) MULTI.1080p.BluRay.AC3.x264-rahab / POLSKI DUBBING

Stalowy gigant / The Iron Giant (1999) MULTI.1080p.BluRay.AC3.x264-rahab / POLSKI DUBBING
http://www.filmweb.pl/film/Stalowy+gigant-1999-915

czas trwania: 1 godz. 26 min.
gatunek: Animacja, Dla dzieci, Sci-Fi
premiera: 12 maja 2000 (Polska) 2000-05-12 31 lipca 1999 (świat) 1999-07-31
reżyseria: Brad Bird
scenariusz: Brad Bird, Tim McCanlies

Jest 1957 rok. Trwa zimna wojna. W małym miasteczku rybak opowiada o potężnym człowieku całym ze stali, który mieszka w morzu. Nikt poza pewnym chłopcem nie wierzy w bajania staruszka. I to jemu właśnie udaje się odnaleźć szesnastometrowego robota. Stalowy Gigant żywi się żelazem, jest łagodny i naiwny jak dziecko.


General
Format : Matroska
File size : 4.37 GiB
Duration : 1h 23mn
Overall bit rate : 7 524 Kbps
Video
Format/Info : Advanced Video Codec
Format profile : High@L5.1
Duration : 1h 23mn
Bit rate : 6 174 Kbps
Width : 1 280 pixels
Height : 544 pixels
Display aspect ratio : 2.35:1
Frame rate : 25.000 fps
Stream size : 3.50 GiB (80%)
Writing library : x264 core 115 r1995 c1e60b9
Language : English
Audio #1
Format : AC-3
Duration : 1h 23mn
Bit rate mode : Constant
Bit rate : 448 Kbps
Channel(s) : 6 channels
Stream size : 266 MiB (6%)
Language : Polish
Audio #2
Format : AC-3
Duration : 1h 23mn
Bit rate mode : Constant
Bit rate : 448 Kbps
Channel(s) : 6 channels
Stream size : 266 MiB (6%)
Language : German
Audio #3
Format : AC-3
Duration : 1h 23mn
Bit rate mode : Constant
Bit rate : 448 Kbps
Channel(s) : 6 channels
Stream size : 266 MiB (6%)
Language : English



Stalowy gigant / The Iron Giant (1999) MULTI.1080p.BluRay.AC3.x264-rahab / POLSKI DUBBING
Uwaga! Linki nie zakodowane tylko dla zarejestrowanych użytkowników!

Nie masz konta? Zarejestruj się za darmo!
----------------
Links are not encoded only for registered users only! Plese login or register!



Użytkownik VIP

EvilAshUżytkownik

#1 | Dodany: 7 Styczeń 2012 09:57

Mam pytanie tytuł relka to 1080p BluRay a przy linkach jest opis 720p HDTV to jak jest faktycznie ? A jeżeli to HDTV to czyu są jakieś znaczki telewizji ktora to nadawała ?
Użytkownik VIP

keruletUżytkownik

#2 | Dodany: 8 Styczeń 2012 00:20

@ EvilAsh

rzeczywiscie, w opisie (nazwie) watku jest blad, nie jest to wersja 1080p, a 720p, o nazwie release'u: Stalowy.gigant.-.Iron.Giant.1999.PL.DE.EN.AC3.720p.HDTV.x264-rahab - przynajmniej taki plik z rozszerzeniem *.mkv dostajemy przy wypakowaniu...

przelecialem szybko bajke na podgladzie - nie dopatrzylem sie nigdzie zadnego znaczka jakiejkolwiek TV...
Użytkownik VIP

konserwator.fmUżytkownik

#3 | Dodany: 16 Sierpień 2012 23:15

Witam
Czy jest szansa na reuoload,wszystkie linki nie aktywne.Zostałem poproszony o ten film jako hołd dla reżysera.
Z góry dziękuję.

Informacje

Jeżeli chcesz skomentować artykuł musisz być zarejestrowany na stronie.