EXSite.pl - Portal ze wszystkim Mamy tutaj wszystko

NIE MASZ JESZCZE KONTA? ZAREJESTRUJ SIĘ ZA DARMO!   
Przypomnij hasło X

Gdzie jest Nemo? / Finding Nemo (2003) MULTI.1080p.BluRay.AC3.x264-rahab / POLSKI DUBBING

Dodał: CrashRed 6 Styczeń 2012 15:38


Gdzie jest Nemo? / Finding Nemo (2003) MULTI.1080p.BluRay.AC3.x264-rahab / POLSKI DUBBING

Gdzie jest Nemo? / Finding Nemo (2003) MULTI.1080p.BluRay.AC3.x264-rahab / POLSKI DUBBING

Gdzie jest Nemo? / Finding Nemo (2003) MULTI.1080p.BluRay.AC3.x264-rahab / POLSKI DUBBING
http://www.filmweb.pl/Gdzie.Jest.Nemo

czas trwania: 1 godz. 40 min.
gatunek: Animacja, Familijny, Przygodowy
premiera: 14 września 2012 (Polska) 2012-09-14 30 maja 2003 (świat) 2003-05-30
reżyseria: Andrew Stanton, Lee Unkrich
scenariusz: Andrew Stanton, Bob Peterson

Wielka Rafa Koralowa. Tu mieszkają m.in. kolorowe rybki zwane błazenkami. "Gdzie jest Nemo" rozpoczyna się sceną równie wstrząsającą, jak śmierć matki małego jelonka Bambi. Drapieżna ryba pożera żonę Marlina - Coral i prawie wszystkie jajeczka ikry, z których lada dzie? wykluć się miały młode błazenki. Mały Nemo, jedyny ocalały synek Marlina, staje się sensem jego życia. Gdy jednak nadopieku?czy ojciec wysyła Nemo do szkoły, zdarza się kolejne nieszczęście: mały błazenek zostaje wyłowiony z
oceanu przez nurka i trafia do akwarium w gabinecie dentystycznym w Sydney. Marlin, choć cierpi na lęk przed otwartym oceanem, wyrusza synkowi na ratunek. Towarzyszy mu wielka zapominalska Dory.


General
Format : Matroska
File size : 4.36 GiB
Duration : 1h 40mn
Overall bit rate : 6 203 Kbps
Movie name : Finding.Nemo.2003.PL.DE.EN.AC3.1080p.HDTV.x264-rahab
Video
Format/Info : Advanced Video Codec
Format profile : High@L4.1
Duration : 1h 40mn
Bit rate : 5 078 Kbps
Width : 1 920 pixels
Height : 1 080 pixels
Display aspect ratio : 16:9
Frame rate : 23.976 fpssive
Bits/(Pixel*Frame) : 0.102
Stream size : 3.46 GiB (79%)
Writing library : x264 core 116 r2074 2641b9e
Language : English
Audio #1
Format : AC-3
Duration : 1h 40mn
Bit rate mode : Constant
Bit rate : 384 Kbps
Channel(s) : 6 channels
Stream size : 276 MiB (6%)
Language : Polish
Audio #2
Format : AC-3
Duration : 1h 40mn
Bit rate mode : Constant
Bit rate : 384 Kbps
Channel(s) : 6 channels
Stream size : 276 MiB (6%)
Language : German
Audio #3
Format : AC-3
Duration : 1h 40mn
Bit rate mode : Constant
Bit rate : 384 Kbps
Channel(s) : 6 channels
Stream size : 276 MiB (6%)
Language : English



Gdzie jest Nemo? / Finding Nemo (2003) MULTI.1080p.BluRay.AC3.x264-rahab / POLSKI DUBBING

haslo: crash

Uwaga! Linki nie zakodowane tylko dla zarejestrowanych użytkowników!

Nie masz konta? Zarejestruj się za darmo!
----------------
Links are not encoded only for registered users only! Plese login or register!



haslo wymagane na filesonic i uploadet.to: crash


Użytkownik VIP

CrashRedVIP

#1 | Dodany: 6 Styczeń 2012 15:39

ok
Użytkownik VIP

LukariusUżytkownik

#2 | Dodany: 6 Styczeń 2012 20:52

Sorrki ale!!!

JDwypak\F.N.2003.PL.DE.EN.AC3.1080p.HDTV.x264.RePack-rahab.haslo.crash\F.N.2003.PL.DE.EN.AC3.1080p.HDTV.x264.RePack-rahab.haslo.crash.part01.rar: Błąd CRC w zaszyfrowanym pliku

Sorrki ale!!!! z filesonica
JDwypak\F.N.2003.PL.DE.EN.AC3.1080p.HDTV.x264.RePack-rahab.haslo.crash\F.N.2003.PL.DE.EN.AC3.1080p.HDTV.x264.RePack-rahab.haslo.crash.part01.rar: Błąd CRC w zaszyfrowanym pliku
Użytkownik VIP

CrashRedVIP

#3 | Dodany: 6 Styczeń 2012 21:32

Lukarius,
nastepnym razem PW bedzie szybciej, a co do uploadu zaraz sprawdze, ale mam nadzieje ze hasla uzyles, bo nawet w linkach i nazwach plikow jasniej sie tego napisac nie da

no tak nie uzyles hasla to nic dziwnego ze rozpakować nie możesz bo upload jest ok ...
Użytkownik VIP

LukariusUżytkownik

#4 | Dodany: 6 Styczeń 2012 23:28

Dzięki serdeczne za wstawki nie tylko tą., hasełka próbowałem i z dużej i zmałej lterki, osobno ściągałem 1part. ten sam błąd
Użytkownik VIP

CrashRedVIP

#5 | Dodany: 6 Styczeń 2012 23:46

Lukarius,
cos zle robisz, musi dzialc bo sciagnolem z filesonic kontrolnie i rozpakowalem bez problemu, haslo : crash pisane z malej litery musi dzialac wyjscia nie ma, albo uaktualnij rara nie wiem co moge innego poradzic.
Użytkownik VIP

tajtusUżytkownik

#6 | Dodany: 7 Styczeń 2012 10:15

NIe wiem co to za cuda ale rozpakowujac wyskakuje mi ten sam blad co ludzia powyzej a na dodatek po wrzuceniu 9 parta(pominiencie bledow jak powyzej)wyskloczyl blad ale nie dawalem zakoncz tylko dalej sie rozpakowywalo.To co najdziwniejsze wyskakuje prosba o 10 parta co to za cuda ??
Użytkownik VIP

CrashRedVIP

#7 | Dodany: 7 Styczeń 2012 15:33

tajtus,
nie wiem w czym problem, ja scignolem i rozpakowalem bez problemu zatem jestem pewny ze linki zahaslowane na filesonic sa napewno poprawne, na reszcie serwerow nie ma hasla bo tylko na filesonik kasuja po sprawdzeniu pliku dlatego trzeba haslowac.
Użytkownik VIP

LukariusUżytkownik

#8 | Dodany: 7 Styczeń 2012 23:03

Dzięki ściągnąłem wolno bo wolno z fileserva 1part i udało się rozpakowąć. Być może miałem coś w tempach, bo po wyczyszczeniu i ściągnieciu z fileserva poszło. Jeszcze raz wielkie dzięki za wstawki - pozdrowiska
Użytkownik VIP

tajtusUżytkownik

#9 | Dodany: 8 Styczeń 2012 01:52

Pomimo iz haslo dziala to przy rozpakowywaniu na 9 parcie wyskakuje blad i dupa 99 procent i nie ma nic.... Nie wiem probowalem juz na wszystkie sposoby
Użytkownik VIP

CrashRedVIP

#10 | Dodany: 8 Styczeń 2012 02:13

tajtus,
ale rozumiem ze ten part sciagnoles jeszcze raz ( i nie dawaj zasta pistniejacego tylko wykasuj i sciagnij jeszcze raz) ? mowie jak scigales z filesonic musi dzialac wyjscia nie ma bo sprawdzalem jak to sie mowi "tymi rencami " :P i pamietaj pliki na filesonic i ul sa niewymienne z innimi bo maja haslo , zreszta nawet nazwa plikow jest inna.
Użytkownik VIP

tajtusUżytkownik

#11 | Dodany: 8 Styczeń 2012 14:06

Aaaa to ja juz wszystko rozumiem dlaczego tak sie dzieje... Z przyzwyczajenia sciagnalem ze wszystkiego dlatego tak sie dzieje... Ok pokombinuje jesczze z tymi partami.Tylko sam sie zakrecilem bo zmienialem nazwy plikow i kurcze pewnie zassam raz jeszcze.Dzieki za wstawke i za objasnienia.
Użytkownik VIP

CrashRedVIP

#12 | Dodany: 8 Styczeń 2012 16:35

tajtus,
no to wszystko jasne :)

Informacje

Jeżeli chcesz skomentować artykuł musisz być zarejestrowany na stronie.