EXSite.pl - Portal ze wszystkim Mamy tutaj wszystko

NIE MASZ JESZCZE KONTA? ZAREJESTRUJ SIĘ ZA DARMO!   
Przypomnij hasło X

I Ty możesz zostać bohaterem / Everyone's Hero (2006) MULTI.720p.HDTV.x264-rahab / POLSKI DUBBING

Dodał: CrashRed 6 Styczeń 2012 16:01


I Ty możesz zostać bohaterem / Everyone's Hero (2006) MULTI.720p.HDTV.x264-rahab / POLSKI DUBBING

I Ty możesz zostać bohaterem / Everyone's Hero (2006) MULTI.720p.HDTV.x264-rahab / POLSKI DUBBING

I Ty możesz zostać bohaterem / Everyone's Hero (2006) MULTI.720p.HDTV.x264-rahab / POLSKI DUBBING
http://www.filmweb.pl/I.Ty.Mozesz.Zostac.Bohaterem

czas trwania: 1 godz. 30 min.
gatunek: Animacja, Familijny, Komedia, Przygodowy
premiera: 7 września 2007 (Polska) 2007-09-07 15 września 2006 (świat) 2006-09-15
produkcja: Kanada, USA
reżyseria: Christopher Reeve, Dan St. Pierre
scenariusz: Rob Kurtz, Jeff Hand

Historia młodego fana baseballu, który wyrusza w podróż przez kraj by odzyskać zaginiony kij gwiazdy drużyny New York Yankees - Babe Rutha. Bohater wierzy, że tylko z nim jego idol będzie w stanie doprowadzić swoją drużynę do zwycięstwa podczas decydującego meczu rozgrywek 1932 roku. Do śmierci w 2004 roku film ten reżyserował Christopher Reeve.


General
Format : Matroska
Format version : Version 2
File size : 4.35 GiB
Duration : 1h 23mn
Overall bit rate : 7 479 Kbps
Video
Format/Info : Advanced Video Codec
Format profile : High@L4.1
Duration : 1h 23mn
Bit rate : 6 345 Kbps
Width : 1 280 pixels
Height : 720 pixels
Display aspect ratio : 16:9
Frame rate : 25.000 fps
Stream size : 3.59 GiB (83%)
Writing library : x264 core 116 r2074 2641b9e
Language : English
Audio #1
Format : AC-3
Duration : 1h 23mn
Bit rate mode : Constant
Bit rate : 384 Kbps
Channel(s) : 6 channels
Stream size : 229 MiB (5%)
Language : Polish
Audio #2
Format : AC-3
Duration : 1h 23mn
Bit rate mode : Constant
Bit rate : 384 Kbps
Channel(s) : 6 channels
Stream size : 229 MiB (5%)
Language : German
Audio #3
Format : AC-3
Duration : 1h 23mn
Bit rate mode : Constant
Bit rate : 384 Kbps
Channel(s) : 6 channels
Stream size : 229 MiB (5%)
Language : English



I Ty możesz zostać bohaterem / Everyone's Hero (2006) MULTI.720p.HDTV.x264-rahab / POLSKI DUBBING
Uwaga! Linki nie zakodowane tylko dla zarejestrowanych użytkowników!

Nie masz konta? Zarejestruj się za darmo!
----------------
Links are not encoded only for registered users only! Plese login or register!



Użytkownik VIP

bratchomikaUżytkownik

#1 | Dodany: 7 Styczeń 2012 10:22

Fileserve UL i filejungle part 9 offline
Użytkownik VIP

100grzybUżytkownik

#2 | Dodany: 7 Styczeń 2012 12:22

agreed :)
Użytkownik VIP

adam5504Użytkownik

#3 | Dodany: 8 Styczeń 2012 08:25

Dajcie wersje AVI

Informacje

Jeżeli chcesz skomentować artykuł musisz być zarejestrowany na stronie.