EXSite.pl - Portal ze wszystkim Mamy tutaj wszystko

NIE MASZ JESZCZE KONTA? ZAREJESTRUJ SIĘ ZA DARMO!   
Przypomnij hasło X

Terra / Battle for Terra (2007) MULTI.1080p.BluRay.x264-rahab / POLSKI LEKTOR

Dodał: CrashRed 6 Styczeń 2012 16:24


Terra / Battle for Terra (2007) MULTI.1080p.BluRay.x264-rahab / POLSKI LEKTOR

Terra / Battle for Terra (2007) MULTI.1080p.BluRay.x264-rahab / POLSKI LEKTOR

Terra / Battle for Terra (2007) MULTI.1080p.BluRay.x264-rahab / POLSKI LEKTOR
http://www.filmweb.pl/film/Terra+3D-2007-375173

czas trwania: 1 godz. 25 min.
gatunek: Animacja, Fantasy, Przygodowy
premiera: 6 listopada 2009 (Polska) 2009-11-06 8 września 2007 (świat) 2007-09-08
produkcja: USA
reżyseria: Aristomenis Tsirbas
scenariusz: Evan Spiliotopoulos

Mala zamieszkuje piękną planetę Terra - miejsce gdzie czci się pokój i tolerancję. Niestety spokój mieszka?ców zostaje zakłócony przez Ziemian, którzy szukają nowego miejsca do osiedlenia, po tym jak na ich planecie wyczerpały się wszystkie surowce. Wraz z rozpoczęciem inwazji na Terrę porwany zostaje ojciec Mali - Roven. Dziewczynka ma nadzieję go uratować, dlatego ukrywa ziemskiego lotnika Jima, którego samolot rozbił się podczas ataku. Mala opiekuje się Jimem i pomaga mu w powrocie do zdrowia. Tak rodzi się prawdziwa przyjaź?, a Mala i Jim obmyślają plan w jaki sposób uratować zarówno ludzką rasę jak i planetę Terra...


General
Format : Matroska
Format version : Version 2
File size : 4.36 GiB
Duration : 1h 19mn
Overall bit rate : 7 901 Kbps
Movie name : Battle.For.Terra.2007.PL.DE.EN.AC3.1080p.BluRay.x264-rahab
Video
Format/Info : Advanced Video Codec
Format profile : High@L4.1
Duration : 1h 19mn
Bit rate : 6 752 Kbps
Width : 1 920 pixels
Height : 816 pixels
Display aspect ratio : 2.35:1
Frame rate : 23.976 fps
Stream size : 3.64 GiB (83%)
Writing library : x264 core 116 r2074 2641b9e
Language : English
Audio #1
Format : AC-3
Codec ID : A_AC3
Duration : 1h 19mn
Bit rate : 384 Kbps
Channel(s) : 6 channels
Stream size : 217 MiB (5%)
Language : Polish
Audio #2
Format : AC-3
Duration : 1h 19mn
Bit rate mode : Constant
Bit rate : 384 Kbps
Channel(s) : 6 channels
Stream size : 217 MiB (5%)
Language : German
Audio #3
Format : AC-3
Duration : 1h 19mn
Bit rate mode : Constant
Bit rate : 384 Kbps
Channel(s) : 6 channels
Stream size : 217 MiB (5%)
Language : English



Terra / Battle for Terra (2007) MULTI.1080p.BluRay.x264-rahab / POLSKI LEKTOR
Uwaga! Linki nie zakodowane tylko dla zarejestrowanych użytkowników!

Nie masz konta? Zarejestruj się za darmo!
----------------
Links are not encoded only for registered users only! Plese login or register!



Użytkownik VIP

xxrasherxxUżytkownik

#1 | Dodany: 17 Maj 2012 18:53

Terra / Battle for Terra (2007) 1080p.BluRay.x264.AC3 [Dubbing PL/DE/EN]



Dane techniczne:
Format: Matroska
File size: 4.36 GiB
Duration: 1h 19mn
Overall bit rate: 7 901 Kbps


Video
Format: AVC
Format profile: High@L4.1
Bit rate: 6 752 Kbps
Width: 1 920 pixels
Height: 816 pixels
Display aspect ratio: 2.35:1
Frame rate: 23.976 fps


Audio #1
Format: AC-3
Bit rate: 384 Kbps
Channel(s): 6 channels
Sampling rate: 48.0 KHz
Language: Polish


Audio #2
Format: AC-3
Duration: 1h 19mn
Bit rate: 384 Kbps
Channel(s): 6 channels
Sampling rate: 48.0 KHz
Language: German


Audio #3
Format: AC-3
Duration: 1h 19mn
Bit rate: 384 Kbps
Channel(s): 6 channels
Sampling rate: 48.0 KHz
Language: English


Opis uploadu:
Wielkość całości: 4,46 Gb
Rodzaj kompresji: rar
Zawartość Uploadu: .mkv
wersja językowa: PL/Eng/Ger
Dane naprawcze: brak


Download // NO PASS
http://download.hellshare.com/terra-1080p/battle-for-terra-2007-pl-ac3-1080p-bluray-x264-part1-rar/7352168
http://download.hellshare.com/terra-1080p/battle-for-terra-2007-pl-ac3-1080p-bluray-x264-part2-rar/7351983
http://download.hellshare.com/terra-1080p/battle-for-terra-2007-pl-ac3-1080p-bluray-x264-part3-rar/7352223
http://download.hellshare.com/terra-1080p/battle-for-terra-2007-pl-ac3-1080p-bluray-x264-part4-rar/7352007
http://download.hellshare.com/terra-1080p/battle-for-terra-2007-pl-ac3-1080p-bluray-x264-part5-rar/7351899

Informacje

Jeżeli chcesz skomentować artykuł musisz być zarejestrowany na stronie.