EXSite.pl - Portal ze wszystkim Mamy tutaj wszystko

NIE MASZ JESZCZE KONTA? ZAREJESTRUJ SIĘ ZA DARMO!   
Przypomnij hasło X

Po rozum do mrówek / The Ant Bully (2006) MULTI.1080p.BluRay.x264-rahab / POLSKI DUBBING

Dodał: CrashRed 6 Styczeń 2012 16:48


Po rozum do mrówek / The Ant Bully (2006) MULTI.1080p.BluRay.x264-rahab / POLSKI DUBBING

Po rozum do mrówek / The Ant Bully (2006) MULTI.1080p.BluRay.x264-rahab / POLSKI DUBBING

Po rozum do mrówek / The Ant Bully (2006) MULTI.1080p.BluRay.x264-rahab / POLSKI DUBBING
http://www.filmweb.pl/Po.Rozum.Do.Mrowek

czas trwania: 1 godz. 28 min.
gatunek: Animacja, Komedia, Przygodowy
premiera: 22 września 2006 (Polska) 2006-09-22 28 lipca 2006 (świat) 2006-07-28
produkcja: USA
reżyseria: John A. Davis
scenariusz: John A. Davis

Ant Bully jest ekranizacją książki Johna Nickle'a, przedstawiającą historię niesfornego chłopca, który zalał swoim pistoletem na wodę kolonię mrówek. Za karę w magiczny sposób zostaje skurczony do rozmiaru owada i skazany na ciężką pracę w ruinach. Przed przywróceniem do postaci człowieka zaczyna doceniać bezinteresowną przyrodę, uczy się tolerancji i zrozumienia (empatii), jednocześnie jest to dla niego bardzo cenną lekcją.


General
Format : Matroska
Format version : Version 2
File size : 4.36 GiB
Duration : 1h 29mn
Overall bit rate : 6 993 Kbps
Video
Format/Info : Advanced Video Codec
Format profile : High@L4.1
Duration : 1h 29mn
Bit rate : 5 858 Kbps
Width : 1 920 pixels
Height : 1 080 pixels
Display aspect ratio : 16:9
Frame rate : 23.976 fps
Stream size : 3.56 GiB (82%)
Writing library : x264 core 116 r2074 2641b9e
Language : English
Audio #1
Format : AC-3
Duration : 1h 29mn
Bit rate mode : Constant
Bit rate : 384 Kbps
Channel(s) : 6 channels
Stream size : 245 MiB (5%)
Language : Polish
Audio #2
Format : AC-3
Duration : 1h 29mn
Bit rate mode : Constant
Bit rate : 384 Kbps
Channel(s) : 6 channels
Stream size : 245 MiB (5%)
Language : German
Audio #3
Format : AC-3
Duration : 1h 29mn
Bit rate mode : Constant
Bit rate : 384 Kbps
Channel(s) : 6 channels
Stream size : 245 MiB (5%)
Language : English



Po rozum do mrówek / The Ant Bully (2006) MULTI.1080p.BluRay.x264-rahab / POLSKI DUBBING
Uwaga! Linki nie zakodowane tylko dla zarejestrowanych użytkowników!

Nie masz konta? Zarejestruj się za darmo!
----------------
Links are not encoded only for registered users only! Plese login or register!



Użytkownik VIP

CrashRedVIP

#1 | Dodany: 6 Styczeń 2012 16:49

ok
Użytkownik VIP

xxrasherxxUżytkownik

#2 | Dodany: 18 Maj 2012 17:54

Po rozum do mrówek / The Ant Bully (2006) 1080p.BluRay.x264.AC3 [Dubbing PL/EN/DE]



Dane techniczne:
Format: Matroska
File size: 4.36 GiB
Duration: 1h 29mn
Overall bit rate: 6 993 Kbps


Video
Format: AVC
Format profile: High@L4.1
Bit rate: 5 858 Kbps
Width: 1 920 pixels
Height: 1 080 pixels
Display aspect ratio: 16:9
Frame rate: 23.976 fps


Audio #1
Format: AC-3
Bit rate: 384 Kbps
Channel(s): 6 channels
Sampling rate: 48.0 KHz
Language: Polish


Audio #2
Format: AC-3
Duration: 1h 29mn
Bit rate: 384 Kbps
Channel(s): 6 channels
Sampling rate: 48.0 KHz
Language: German


Audio #3
Format: AC-3
Duration: 1h 29mn
Bit rate: 384 Kbps
Channel(s): 6 channels
Sampling rate: 48.0 KHz
Language: English


Opis uploadu:
Wielkość całości: 4,46 Gb
Rodzaj kompresji: rar
Zawartość Uploadu: .mkv
wersja językowa: PL/Eng/Ger
Dane naprawcze: brak


Download // NO PASS
http://download.hellshare.com/ant-bully-1080p/the-ant-bully-2006-pl-ac3-1080p-bluray-x264-part1-rar/7370237
http://download.hellshare.com/ant-bully-1080p/the-ant-bully-2006-pl-ac3-1080p-bluray-x264-part2-rar/7370269
http://download.hellshare.com/ant-bully-1080p/the-ant-bully-2006-pl-ac3-1080p-bluray-x264-part3-rar/7370266
http://download.hellshare.com/ant-bully-1080p/the-ant-bully-2006-pl-ac3-1080p-bluray-x264-part4-rar/7370283
http://download.hellshare.com/ant-bully-1080p/the-ant-bully-2006-pl-ac3-1080p-bluray-x264-part5-rar/7370232

Informacje

Jeżeli chcesz skomentować artykuł musisz być zarejestrowany na stronie.