EXSite.pl - Portal ze wszystkim Mamy tutaj wszystko

NIE MASZ JESZCZE KONTA? ZAREJESTRUJ SIĘ ZA DARMO!   
Przypomnij hasło X

Straszny dom / Monster House (2006) MULTI.1080p.BluRay.x264-rahab / POLSKI DUBBING

Dodał: CrashRed 6 Styczeń 2012 17:14


Straszny dom / Monster House (2006) MULTI.1080p.BluRay.x264-rahab / POLSKI DUBBING

Straszny dom / Monster House (2006) MULTI.1080p.BluRay.x264-rahab / POLSKI DUBBING

Straszny dom / Monster House (2006) MULTI.1080p.BluRay.x264-rahab / POLSKI DUBBING
http://www.filmweb.pl/Straszny.Dom

czas trwania: 1 godz. 31 min.
gatunek: Animacja, Familijny
premiera: 18 sierpnia 2006 (Polska) 2006-08-18 15 czerwca 2006 (świat) 2006-06-15
produkcja: USA
reżyseria: Gil Kenan
scenariusz: Pamela Pettler, Dan Harmon

12-letni DJ Walters od dzieci?stwa obserwował dom Nebbercrackerów i od dawna podejrzewał, że z tym domem jest coś nie tak. Zauważył, że coraz więcej rzeczy z otoczenia domu zaczyna znikać, nawet pani Nebbercracker gdzieś przepadła. Gdy nadejdzie święto Halloween DJ wraz z dwójką przyjaciół uda się na rekonesans i odkryje przerażającą prawdę: dom jest żywym pożerającym wszystko i wszystkich potworem. Dzieciaki próbują o tym fakcie powiedzieć rodzicom i policji, ale dorośli biorą ich rewelacje jako wymysły wybujałej dziecięcej wyobraźni. Nikt chłopakom nie wierzy, a dom robi się coraz groźniejszy i coraz bardziej głodny...


General
Format : Matroska
Format version : Version 2
File size : 4.36 GiB
Duration : 1h 30mn
Overall bit rate : 6 889 Kbps
Video
Format/Info : Advanced Video Codec
Format profile : High@L4.1
Duration : 1h 30mn
Bit rate : 5 737 Kbps
Width : 1 920 pixels
Height : 800 pixels
Display aspect ratio : 2.40:1
Frame rate : 23.976 fps
Stream size : 3.55 GiB (81%)
Writing library : x264 core 116 r2074 2641b9e
Language : English
Audio #1
Format : AC-3
Duration : 1h 30mn
Bit rate mode : Constant
Bit rate : 384 Kbps
Channel(s) : 6 channels
Stream size : 249 MiB (6%)
Language : Polish
Audio #2
Format : AC-3
Duration : 1h 30mn
Bit rate mode : Constant
Bit rate : 384 Kbps
Channel(s) : 6 channels
Stream size : 249 MiB (6%)
Language : German
Audio #3
Format : AC-3
Duration : 1h 30mn
Bit rate mode : Constant
Bit rate : 384 Kbps
Channel(s) : 6 channels
Stream size : 249 MiB (6%)
Language : English



Straszny dom / Monster House (2006) MULTI.1080p.BluRay.x264-rahab / POLSKI DUBBING
Uwaga! Linki nie zakodowane tylko dla zarejestrowanych użytkowników!

Nie masz konta? Zarejestruj się za darmo!
----------------
Links are not encoded only for registered users only! Plese login or register!



Użytkownik VIP

r.marioUżytkownik

#1 | Dodany: 8 Styczeń 2012 14:31

thx
Użytkownik VIP

xxrasherxxUżytkownik

#2 | Dodany: 18 Maj 2012 15:50

Straszny dom / Monster House (2006) 1080p.BluRay.x264.AC3 [Dubbing PL/DE/EN]



Dane techniczne:
Format: Matroska
File size: 4.36 GiB
Duration: 1h 30mn
Overall bit rate: 6 889 Kbps


Video
Format: AVC
Format profile: High@L4.1
Bit rate: 5 737 Kbps
Width: 1 920 pixels
Height: 800 pixels
Display aspect ratio: 2.40:1
Frame rate: 23.976 fps


Audio #1
Format: AC-3
Bit rate: 384 Kbps
Channel(s): 6 channels
Sampling rate: 48.0 KHz
Language: Polish


Audio #2
Format: AC-3
Duration: 1h 30mn
Bit rate: 384 Kbps
Channel(s): 6 channels
Sampling rate: 48.0 KHz
Language: German


Audio #3
Format: AC-3
Duration: 1h 30mn
Bit rate: 384 Kbps
Channel(s): 6 channels
Sampling rate: 48.0 KHz
Language: English


Opis uploadu:
Wielkość całości: 4,46 Gb
Rodzaj kompresji: rar
Zawartość Uploadu: .mkv
wersja językowa: PL/Eng/Ger
Dane naprawcze: brak


Download // NO PASS
http://download.hellshare.com/m-house-1080p/monster-house-2006-pl-ac3-1080p-bluray-x264-part1-rar/7368605
http://download.hellshare.com/m-house-1080p/monster-house-2006-pl-ac3-1080p-bluray-x264-part2-rar/7368599
http://download.hellshare.com/m-house-1080p/monster-house-2006-pl-ac3-1080p-bluray-x264-part3-rar/7368624
http://download.hellshare.com/m-house-1080p/monster-house-2006-pl-ac3-1080p-bluray-x264-part4-rar/7368604
http://download.hellshare.com/m-house-1080p/monster-house-2006-pl-ac3-1080p-bluray-x264-part5-rar/7368647

Informacje

Jeżeli chcesz skomentować artykuł musisz być zarejestrowany na stronie.