EXSite.pl - Portal ze wszystkim Mamy tutaj wszystko

NIE MASZ JESZCZE KONTA? ZAREJESTRUJ SIĘ ZA DARMO!   
Przypomnij hasło X

Lista Schindlera / Schindler's List (1993) MulTi.AC3.1080p.HDTV.x264-rahab / POLSKI LEKTOR

Dodał: CrashRed 6 Styczeń 2012 18:27


Lista Schindlera / Schindler's List (1993) MulTi.AC3.1080p.HDTV.x264-rahab / POLSKI LEKTOR

Lista Schindlera / Schindler's List (1993) MulTi.AC3.1080p.HDTV.x264-rahab / POLSKI LEKTOR

Lista Schindlera / Schindler's List (1993) MulTi.AC3.1080p.HDTV.x264-rahab / POLSKI LEKTOR
http://www.filmweb.pl/Lista.Schindlera#

czas trwania: 3 godz. 15 min.
gatunek: Dramat, Wojenny
premiera: 31 grudnia 1993 (Polska) 1993-12-31 30 listopada 1993 (świat) 1993-11-30
reżyseria: Steven Spielberg
scenariusz: Steven Zaillian

Oskar Schindler jest poważanym niemieckim przemysłowcem, który podczas II wojny światowej jest właścicielem dużej fabryki, w której w nieludzkich warunkach pracują Żydzi. Widząc cierpienie tych ludzi zaczyna ratować ich przed śmiercią w obozach koncentracyjnych. Film oparty jest na prawdziwej historii Oskara Schindlera, który podczas wojny ocalił przed śmiercią około 1100 ludzkich istnie?.


Schindler's.List.1993.PL.DE.EN.AC3.1080p.HDTV.x264-rahab
General
Format : Matroska
File size : 7.94 GiB
Duration : 3h 7mn
Overall bit rate : 6 074 Kbps
Video
Format/Info : Advanced Video Codec
Format profile : High@L4.1
Duration : 3h 7mn
Bit rate : 4 931 Kbps
Width : 1 920 pixels
Height : 1 080 pixels
Display aspect ratio : 16:9
Frame rate : 25.000 fps
Stream size : 6.28 GiB (79%)
Title : Schindler's.List.1993.PL.DE.EN.AC3.1080p.HDTV.x264-rahab
Writing library : x264 core 115 r1995 c1e60b9
Language : English
Audio #1
Format : AC-3
Duration : 3h 7mn
Bit rate mode : Constant
Bit rate : 384 Kbps
Channel(s) : 6 channels
Stream size : 514 MiB (6%)
Title : Schindler's.List.1993.PL.AC3.1080p.HDTV.x264-rahab
Language : Polish
Audio #2
Format : AC-3
Duration : 3h 7mn
Bit rate mode : Constant
Bit rate : 384 Kbps
Channel(s) : 6 channels
Stream size : 514 MiB (6%)
Title : Schindler's.List.1993.DE.AC3.1080p.HDTV.x264-rahab
Language : German
Audio #3
Format : AC-3
Duration : 3h 7mn
Bit rate mode : Constant
Bit rate : 384 Kbps
Channel(s) : 6 channels
Stream size : 514 MiB (6%)
Title : Schindler's.List.1993.EN.AC3.1080p.HDTV.x264-rahab
Language : English



Lista Schindlera / Schindler's List (1993) MulTi.AC3.1080p.HDTV.x264-rahab / POLSKI LEKTOR
Uwaga! Linki nie zakodowane tylko dla zarejestrowanych użytkowników!

Nie masz konta? Zarejestruj się za darmo!
----------------
Links are not encoded only for registered users only! Plese login or register!



Użytkownik VIP

CrashRedVIP

#1 | Dodany: 6 Styczeń 2012 18:28

ok
Użytkownik VIP

darolekUżytkownik

#2 | Dodany: 7 Styczeń 2012 00:52

"Lista Szwindlera" - tak się toto powinno nazywać - produkt filmopodobny z zakłamaną treścią
GóWno czytasz - gówno wiesz !
Użytkownik VIP

H1sVIP Uploader

#3 | Dodany: 7 Styczeń 2012 01:39

Lista.Schindlera.1993.PL.HDTV.720p.x264-LTN
ŹRÓDŁO: Schindlers.List.1993.720p.HDTV.DTS.x264-DON
OGÓLNE: Matroska, mkv, 8.42 GB, 3h 7mn 6s 750ms
WIDEO: 1280x694 (720p), x264 ~ 5315 Kbps, FPS: 25.000, High@L4.1, 16:9
AUDIO: Polski Lektor (profesjonalny) AC3 2.0 ~ 384 kbps, Angielski DTS 5.1 ~ 755 kbps
NAPISY: Pol - TXT, Eng - UTF-8
INFORMACJE EXTRA: Party można pobierać naprzemiennie, Party zawierają dane naprawcze


FileSonic:
Uwaga! Linki nie zakodowane tylko dla zarejestrowanych użytkowników!

Nie masz konta? Zarejestruj się za darmo!
----------------
Links are not encoded only for registered users only! Plese login or register!


FileServe:
Uwaga! Linki nie zakodowane tylko dla zarejestrowanych użytkowników!

Nie masz konta? Zarejestruj się za darmo!
----------------
Links are not encoded only for registered users only! Plese login or register!


UploadStation:
Uwaga! Linki nie zakodowane tylko dla zarejestrowanych użytkowników!

Nie masz konta? Zarejestruj się za darmo!
----------------
Links are not encoded only for registered users only! Plese login or register!


FileJungle:
Uwaga! Linki nie zakodowane tylko dla zarejestrowanych użytkowników!

Nie masz konta? Zarejestruj się za darmo!
----------------
Links are not encoded only for registered users only! Plese login or register!
Moje Uploady:
KLIK!
Użytkownik VIP

ampatinisUżytkownik

#4 | Dodany: 11 Styczeń 2012 22:07

Lista Schindlera / Schindler's List (1993) MulTi.AC3.1080p.HDTV.x264-rahab / POLSKI LEKTOR

Schindler's.List.1993.PL.DE.EN.AC3.1080p.HDTV.x264-rahab
General
Format : Matroska
File size : 7.94 GiB
Duration : 3h 7mn
Overall bit rate : 6 074 Kbps
Video
Format/Info : Advanced Video Codec
Format profile : High@L4.1
Duration : 3h 7mn
Bit rate : 4 931 Kbps
Width : 1 920 pixels
Height : 1 080 pixels
Display aspect ratio : 16:9
Frame rate : 25.000 fps
Stream size : 6.28 GiB (79%)
Title : Schindler's.List.1993.PL.DE.EN.AC3.1080p.HDTV.x264-rahab
Writing library : x264 core 115 r1995 c1e60b9
Language : English
Audio #1
Format : AC-3
Duration : 3h 7mn
Bit rate mode : Constant
Bit rate : 384 Kbps
Channel(s) : 6 channels
Stream size : 514 MiB (6%)
Title : Schindler's.List.1993.PL.AC3.1080p.HDTV.x264-rahab
Language : Polish
Audio #2
Format : AC-3
Duration : 3h 7mn
Bit rate mode : Constant
Bit rate : 384 Kbps
Channel(s) : 6 channels
Stream size : 514 MiB (6%)
Title : Schindler's.List.1993.DE.AC3.1080p.HDTV.x264-rahab
Language : German
Audio #3
Format : AC-3
Duration : 3h 7mn
Bit rate mode : Constant
Bit rate : 384 Kbps
Channel(s) : 6 channels
Stream size : 514 MiB (6%)
Title : Schindler's.List.1993.EN.AC3.1080p.HDTV.x264-rahab
Language : English



Uwaga! Linki nie zakodowane tylko dla zarejestrowanych użytkowników!

Nie masz konta? Zarejestruj się za darmo!
----------------
Links are not encoded only for registered users only! Plese login or register!
Użytkownik VIP

lordluk3Użytkownik

#5 | Dodany: 10 Luty 2013 13:51

Schindler's List 1993 DVDRip H264 AAC-SecretMyth (Kingdom-Release)
http://download.hellshare.pl/schindler-s-list-mp4/11514729/

Użytkownik VIP

astyUżytkownik

#6 | Dodany: 3 Kwiecień 2013 15:31

Lista Schindlera (1993) PL.1080P.BD9.CiNEMAET-Xstriker Lektor PL

[QUOTE]Encoded by....: CinemaET- Xstriker
Release Date..: 28.03.2013
Source V/A....: BluRay
Language......: Polish.Angielski
Subtitles: Polish. Angielski
Video Codec/Bitrate: AVC/5.562 Kb/s
Frame Rate: 23,976 fps
Video Resolution: 1.920x1.080
Audio Codec: AC-3/6 kanalow/640 Kb/s
Size: 7,58 GB
Runtime: 3h 15 min
[/QUOTE]

Uwaga! Linki nie zakodowane tylko dla zarejestrowanych użytkowników!

Nie masz konta? Zarejestruj się za darmo!
----------------
Links are not encoded only for registered users only! Plese login or register!

Informacje

Jeżeli chcesz skomentować artykuł musisz być zarejestrowany na stronie.