EXSite.pl - Portal ze wszystkim Mamy tutaj wszystko

NIE MASZ JESZCZE KONTA? ZAREJESTRUJ SIĘ ZA DARMO!   
Przypomnij hasło X

U Pana Boga za miedzą (2009) PL.BluRay.720p.x264-JB / FILM POLSKI

Dodał: CrashRed 6 Styczeń 2012 19:00


U Pana Boga za miedzą (2009) PL.BluRay.720p.x264-JB / FILM POLSKI

U Pana Boga za miedzą (2009) PL.BluRay.720p.x264-JB / FILM POLSKI

U Pana Boga za miedzą (2009) PL.BluRay.720p.x264-JB / FILM POLSKI
http://www.filmweb.pl/film/U+Pana+Boga+za+miedz%C4%85-2009-489641

czas trwania: 1 godz. 51 min.
gatunek: Komedia
premiera: 19 czerwca 2009 (Polska) 2009-06-19 19 czerwca 2009 (świat) 2009-06-19
reżyseria: Jacek Bromski
scenariusz: Jacek Bromski

Sielanka nigdy nie trwa wiecznie. Nad Królowym Mostem zbierają się ciemne chmury, a dzwon, który dotychczas harmonijnie odmierzał czas mieszka?ców miasteczka, pewnego dnia zabrzmiał fałszywie. Ksiądz patrzy w niebo i pyta Najświętszą Panienkę, czy zło wyprze dobro, i czy zło tylko dobrem można zwyciężać… Spokojne życie mieszka?ców tego kąta Podlasia zakłócały tylko przybycia obcych. Czasem, obcy stawał się swoim, jak Marusia, Bocian czy Marian, czasem – obcy znikał, wygnany przez lokalną
społeczność, która nie chciała burzenia swojego świata. Tak jest i tym razem. Marina, atrakcyjna, dojrzała i samotna instruktorka przybywa do Królowego Mostu, by zapoznać miejscową policję z tajnikami obsługi komputera. Wreszcie można wyciągnąć z szafy laptopa, którego przesłali z centrali, a który dotychczas spokojnie oczekiwał na swój los w sejfie. Zza wielkiej wody, w białym kabriolecie, przybywa Amerykanin, a tak naprawdę - Staś Niemotko, po 20 latach emigracji wracający na ojcowiznę. Niestety – miasteczko niby nic się nie zmieniło, ludzie ci sami, ale z ojcowizny pozostały same zgliszcza. A tymczasem w Królowym Moście zbliżają się wybory burmistrza. Od lat było tak samo, ten sam kandydat, który mógł liczyć na poparcie i proboszcza, i komendanta. Ale władza staje się modna, i o fotelu burmistrza zaczyna marzyć inny kandydat, miejscowy przedsiębiorca, jakby nie patrzeć, człowiek sukcesu. Gość z Ameryki, bezrobotny, obyty w świecie, jest idealnym kandydatem na szefa sztabu wyborczego. W ten oto sposób podlaskie Macondo staje się podlaską „warszawką”, miniaturą wielkiej sceny politycznej, na której wszystkie chwyty są dozwolone – ukryte kamery, stronnicze media i brak elementarnych zasad. Sprzymierze?cami walki politycznej staje się banda Gruzina, tego samego, który 10 lat wcześniej wygnany został z miasteczka przez Komendanta. Rozboje, haracze, zastraszanie stają się smutną codziennością mieszka?ców Królowego Mostu. Ale i w miasteczku tworzy się nowa armia: jest w niej Marian Cielęcki, zięć Komendanta, może nie orzeł, ale swoje zasady ma; jest Bocian, co prawda obecnie przykładny obywatel, ale jego poprzednia praca, w której znany był jako Czapla, dobrze przygotowała go na walkę z przestępczością, zwłaszcza zorganizowaną; jest w ko?cu i Marina, która okazuje się biegła nie tylko w sztuce informatycznej, ale przede wszystkim policyjnej. Przed Proboszczem jedna z najtrudniejszych decyzji w życiu. Czy dla przywrócenia spokoju w miasteczku zgodzi się na drastyczne rozwiązanie, które niewiele ma wspólnego z etyką chrześcija?ską


Format : Matroska
File size : 4.37 GiB
Duration : 1h 54mn
Overall bit rate : 5 444 Kbps
Movie name : U.Pana.Boga.Za.Miedza.2009.BluRay.720p.x264-JB
Video
Format/Info : Advanced Video Codec
Format profile : High@L5.1
Duration : 1h 54mn
Bit rate : 4 996 Kbps
Width : 1 280 pixels
Height : 720 pixels
Display aspect ratio : 16:9
Frame rate : 23.976 fps
Stream size : 3.93 GiB (90%)
Title : 720p (JB) www.HDWorld.pl
Writing library : x264 core 45 svn-489
Language : Polish
Audio
Format : AC-3
Duration : 1h 54mn
Bit rate : 448 Kbps
Channel(s) : 6 channels
Stream size : 368 MiB (8%)
Title : Polish (AC3 5.1 448 Kbps)
Language : Polish



U Pana Boga za miedzą (2009) PL.BluRay.720p.x264-JB / FILM POLSKI
Uwaga! Linki nie zakodowane tylko dla zarejestrowanych użytkowników!

Nie masz konta? Zarejestruj się za darmo!
----------------
Links are not encoded only for registered users only! Plese login or register!



Użytkownik VIP

bodzio9Uploader

#2 | Dodany: 11 Maj 2012 11:49

U Pana Boga za miedzą (2009) PL.BluRay.720p




Uwaga! Linki nie zakodowane tylko dla zarejestrowanych użytkowników!

Nie masz konta? Zarejestruj się za darmo!
----------------
Links are not encoded only for registered users only! Plese login or register!


hasło : up4Audioksiazki!

Informacje

Jeżeli chcesz skomentować artykuł musisz być zarejestrowany na stronie.