EXSite.pl - Portal ze wszystkim Mamy tutaj wszystko

NIE MASZ JESZCZE KONTA? ZAREJESTRUJ SIĘ ZA DARMO!   
Przypomnij hasło X

Operacja Dunaj (2009) PL.1080p.BluRay.DTS.x264-AWHD / FILM POLSKI

Dodał: CrashRed 6 Styczeń 2012 19:59


Operacja Dunaj (2009) PL.1080p.BluRay.DTS.x264-AWHD / FILM POLSKI

Operacja Dunaj (2009) PL.1080p.BluRay.DTS.x264-AWHD / FILM POLSKI

Operacja Dunaj (2009) PL.1080p.BluRay.DTS.x264-AWHD / FILM POLSKI
http://www.filmweb.pl/film/Operacja+Dunaj-2009-484714

czas trwania: 1 godz. 44 min.
gatunek: Komedia
Polska, Czechy
premiera: 14 sierpnia 2009 (Polska) 2009-08-14 31 lipca 2009 (świat) 2009-07-31
reżyseria: Jacek Głomb
scenariusz: Jacek Kondracki, Robert Urba?ski

Polsko-czeska superprodukcja z gwiazdorską obsadą. Na ekranie Maciej Stuhr, Tomasz Kot i Zbigniew Zamachowski oraz… Jiri Menzel - zdobywca Oscara, jeden z najsłynniejszych czeskich reżyserów i aktorów. W sierpniu 1968 roku, podczas inwazji (zdaniem niektórych “przyjacielskiej” interwencji) wojsk Układu Warszawskiego na Czechosłowację zaginęła “Biedroneczka” – wysłużony polski czołg. To wydarzyło się naprawdę. Dalsze zabawne losy bohaterów filmu nie mają już żadnego przełożenia w faktach. Załoga
gubi drogę, a jakby tego było mało – "parkuje" w niespodziewanym miejscu…Czy czterej pancerni wykonają zadanie? Czy polegną w starciu z niechęcią czeskich „przyjaciół” i urodą czeskich dziewcząt? "Operacja Dunaj" - film w reżyserii Jacka Głomba i "pod specjalnym nadzorem" Jiriego Menzla , który nie tylko zagrał jedną z głównych ról, ale był też opiekunem artystycznym obrazu


Format : Matroska
File size : 7.93 GiB
Duration : 1h 40mn
Overall bit rate : 11.3 Mbps
Video
Format/Info : Advanced Video Codec
Format profile : High@L4.1
Duration : 1h 40mn
Bit rate : 9 800 Kbps
Width : 1 920 pixels
Height : 1 040 pixels
Display aspect ratio : 16:9
Frame rate : 25.000 fps
Stream size : 6.72 GiB (85%)
Title : x264
Writing library : x264 core 78 r1301M bcba15d
Language : English
Audio
Format : DTS
Duration : 1h 40mn
Bit rate mode : Constant
Bit rate : 1 510 Kbps
Channel(s) : 6 channels
Stream size : 1.06 GiB (13%)
Title : DTS
Language : Polish



Operacja Dunaj (2009) PL.1080p.BluRay.DTS.x264-AWHD / FILM POLSKI
Uwaga! Linki nie zakodowane tylko dla zarejestrowanych użytkowników!

Nie masz konta? Zarejestruj się za darmo!
----------------
Links are not encoded only for registered users only! Plese login or register!



Użytkownik VIP

CrashRedVIP

#1 | Dodany: 6 Styczeń 2012 20:00

Źródło : Bluray
Pełna nazwa : Operacja.Dunaj.2009.720p.BluRay.DD5.1.x264-HALYNA
Rozdzielczość : 1280x696
Video Bitrate : 5596
Przepływowość ramek : 23,976
Format : MKV (Matroska)
Czas trwania : 01h 41m
Rozmiar pliku : 4, 37 GB
Audio
Audio 1 : Polski | AC3 5.1 | 640 Kbps
Audio 2 : Czeski | AC3 5.1 | 640 Kbps
Napisy
Język : Polski | Angielski | Czeski



Operacja Dunaj (2009) 720p.BluRay.DD5.1.x264-HALYNA FILM POLSKI

Uwaga! Linki nie zakodowane tylko dla zarejestrowanych użytkowników!

Nie masz konta? Zarejestruj się za darmo!
----------------
Links are not encoded only for registered users only! Plese login or register!

Informacje

Jeżeli chcesz skomentować artykuł musisz być zarejestrowany na stronie.