EXSite.pl - Portal ze wszystkim Mamy tutaj wszystko

NIE MASZ JESZCZE KONTA? ZAREJESTRUJ SIĘ ZA DARMO!   
Przypomnij hasło X

Efekt motyla 1-3 / The Butterfly Effect 1-3 (2004-2009) PL.1080p.BluRay.x264.HDW / POLSKI LEKTOR

Dodał: CrashRed 14 Styczeń 2012 17:23


Efekt motyla / The Butterfly Effect (2004) PL.1080p.BluRay.x264.HDW / POLSKI LEKTOR

Efekt motyla 1-3 / The Butterfly Effect 1-3  (2004-2009) PL.1080p.BluRay.x264.HDW / POLSKI LEKTOR

Efekt motyla 1-3 / The Butterfly Effect 1-3  (2004-2009) PL.1080p.BluRay.x264.HDW / POLSKI LEKTOR
http://www.filmweb.pl/Efekt.Motyla

czas trwania: 1 godz. 53 min.
gatunek: Thriller, Sci-Fi
premiera: 18 czerwca 2004 (Polska) 2004-06-18 22 stycznia 2004 (świat) 2004-01-22
produkcja: Kanada, USA
reżyseria: J. Mackye Gruber, Eric Bress
scenariusz: J. Mackye Gruber, Eric Bress

Wciągający thriller o zjawiskach paranormalnych, wykorzystujący zagadkę tajemniczej natury przeszłości, teraźniejszości i przyszłości. Kiedy Evan Treborn (Ashton Kutcher) odkrywa, że może zamieniając wspomnienia odwrócić bieg swojego niezbyt udanego życia, przypadkowo zmienia też losy swoich najbliższych, i to z jak najgorszym skutkiem. Gdy nowe życie w coraz bardziej niebezpieczny sposób wymyka mu się spod kontroli, Evan musi odkryć wydarzenie ze swej przeszłości, które może uchronić go przed śmiercią i połączyć z ukochaną.


Efekt motyla 1-3 / The Butterfly Effect 1-3  (2004-2009) PL.1080p.BluRay.x264.HDW / POLSKI LEKTOR
Efekt motyla 1-3 / The Butterfly Effect 1-3  (2004-2009) PL.1080p.BluRay.x264.HDW / POLSKI LEKTOR

Format : Matroska
File size : 8.99 GiB
Duration : 1h 53mn
Overall bit rate : 11.3 Mbps
Movie name : The.Butterfly.Effect.Theatrical.Cut.2004.PL.DUAL.1080p.BluRay.x264-PiEROGi
Video
Format/Info : Advanced Video Codec
Format profile : High@L4.1
Duration : 1h 53mn
Bit rate : 10.9 Mbps
Width : 1 920 pixels
Height : 1 036 pixels
Display aspect ratio : 1.853
Frame rate : 29.970 fps
Stream size : 8.46 GiB (94%)
Title : 1080p (HDChina)
Writing library : x264 core 115 r1995 c1e60b9
Language : English
Audio
Format : AC-3
Duration : 1h 53mn
Bit rate mode : Constant
Bit rate : 448 Kbps
Channel(s) : 6 channels
Stream size : 364 MiB (4%)
Title : Polish (AC3 5.1 448 Kbps)
Language : Polish



Efekt motyla 1-3 / The Butterfly Effect 1-3  (2004-2009) PL.1080p.BluRay.x264.HDW / POLSKI LEKTOR
Uwaga! Linki nie zakodowane tylko dla zarejestrowanych użytkowników!

Nie masz konta? Zarejestruj się za darmo!
----------------
Links are not encoded only for registered users only! Plese login or register!


Efekt motyla 1-3 / The Butterfly Effect 1-3  (2004-2009) PL.1080p.BluRay.x264.HDW / POLSKI LEKTOR
Uwaga! Linki nie zakodowane tylko dla zarejestrowanych użytkowników!

Nie masz konta? Zarejestruj się za darmo!
----------------
Links are not encoded only for registered users only! Plese login or register!







Efekt motyla 2 / The Butterfly Effect 2 (2006) PL.1080p.BluRay.x264.HDW / POLSKI LEKTOR

Efekt motyla 1-3 / The Butterfly Effect 1-3  (2004-2009) PL.1080p.BluRay.x264.HDW / POLSKI LEKTOR

http://www.filmweb.pl/film/Efekt+motyla+2-2006-214305

czas trwania: 1 godz. 32 min.
gatunek: Thriller, Sci-Fi
premiera: 10 sierpnia 2006 (świat) 2006-08-10
produkcja: USA
reżyseria: John R. Leonetti
scenariusz: Michael D. Weiss

Czy możesz zmienić przeszłość nie naruszając przyszłości? Co byś zrobił, gdyby okazało się, że możesz zmienić dowolne wydarzenia z twojej przeszłości? Co byś zmienił? Jakie wspomnienia zatuszował? Do czego nie dopuścił? Nick Larson (Eric Lively) nie wie wiele, ale zdaje sobie sprawę z jednego - ten niezwykły dar może pomóc mu naprawić tragiczne w skutkach wydarzenia sprzed roku, kiedy stracił w wypadku zarówno przyjaciół, jak i miłość swojego życia, piękną Julie. Zdesperowany chęcią napisania nowego rozdziału w historii swojej egzystencji, Nick postanawia zmienić bieg historii nie zważając na konsekwencje..

Efekt motyla 1-3 / The Butterfly Effect 1-3  (2004-2009) PL.1080p.BluRay.x264.HDW / POLSKI LEKTOR
Efekt motyla 1-3 / The Butterfly Effect 1-3  (2004-2009) PL.1080p.BluRay.x264.HDW / POLSKI LEKTOR

Format : Matroska
File size : 7.22 GiB
Duration : 1h 32mn
Overall bit rate : 11.2 Mbps
Movie name : The.Butterfly.Effect.2.2006.PL.DUAL.1080p.BluRay.x264-PiEROGi
Video
Format/Info : Advanced Video Codec
Format profile : High@L4.1
Duration : 1h 32mn
Bit rate : 10.8 Mbps
Width : 1 920 pixels
Height : 1 080 pixels
Display aspect ratio : 16:9
Frame rate : 23.976 fps
Stream size : 6.83 GiB (95%)
Title : 1080p (HDChina)
Writing library : x264 core 115 r1995 c1e60b9
Language : English
Audio
Format : AC-3
Duration : 1h 32mn
Bit rate mode : Constant
Bit rate : 384 Kbps
Channel(s) : 6 channels
Stream size : 254 MiB (3%)
Title : Polish (AC3 5.1 384 Kbps)
Language : Polish


Uwaga! Linki nie zakodowane tylko dla zarejestrowanych użytkowników!

Nie masz konta? Zarejestruj się za darmo!
----------------
Links are not encoded only for registered users only! Plese login or register!


Efekt motyla 1-3 / The Butterfly Effect 1-3  (2004-2009) PL.1080p.BluRay.x264.HDW / POLSKI LEKTOR
Uwaga! Linki nie zakodowane tylko dla zarejestrowanych użytkowników!

Nie masz konta? Zarejestruj się za darmo!
----------------
Links are not encoded only for registered users only! Plese login or register!



Użytkownik VIP

CrashRedVIP

#1 | Dodany: 7 Styczeń 2012 16:03

ok
Użytkownik VIP

ShaQ72Trial Uploader

#2 | Dodany: 7 Styczeń 2012 16:12

ok
Użytkownik VIP

pablo9Użytkownik

#3 | Dodany: 7 Styczeń 2012 22:09

Dzięki za wstawkę, ale może ktoś wystawić żeby weszło na DVD DL. love
Użytkownik VIP

dyskoteka1987Trial Uploader

#4 | Dodany: 7 Styczeń 2012 22:11

thx
Użytkownik VIP

nowystylnowydillUżytkownik

#5 | Dodany: 29 Maj 2012 19:38

Efekt motyla 3 / The Butterfly Effect 3: Revelations (2009) PL.DVDRiP.XViD Lektor PL

Format: AVI 1331 Kb/s
Rozmiar: 698 MB 1h 27min. 10s 289ms
Video: MPEG-4 Visual 1191 Kb/s
Rozdzielczość: 640 x 360 (1.778) 25.000 fps
Audio: MPEG Audio 128 Kb/s
Kanały: 2 kanały, 44.1 KHz


http://turbobit.net/w17bbeiho23l.html

Informacje

Jeżeli chcesz skomentować artykuł musisz być zarejestrowany na stronie.