EXSite.pl - Portal ze wszystkim Mamy tutaj wszystko

NIE MASZ JESZCZE KONTA? ZAREJESTRUJ SIĘ ZA DARMO!   
Przypomnij hasło X

Carlos (2010) PL.720p.BR.x264-Crash / POLSKI LEKTOR

Dodał: CrashRed 7 Styczeń 2012 17:01


Carlos (2010) PL.720p.BR.x264-Crash / POLSKI LEKTOR

Carlos (2010) PL.720p.BR.x264-Crash / POLSKI LEKTOR

Carlos (2010) PL.720p.BR.x264-Crash / POLSKI LEKTOR

http://www.filmweb.pl/serial/Carlos-2010-524359

gatunek: Biograficzny, Kryminał, Dramat historyczny
Niemcy, Francja

"Carlos" opowiada historię Iljicza Ram?reza S?ncheza, który przez dwie dekady był jednym z najbardziej poszukiwanych terrorystów na świecie. W okresie od 1974 roku, gdy usiłował zabić w Londynie brytyjskiego biznesmena żydowskiego pochodzenia, do roku 1994, gdy został aresztowany w Chartumie, żył kilkoma różnymi życiorysami, używał wielu paszportów i był uczestnikiem ważnych wydarze? politycznych swojej epoki.


Format : Matroska
File size : 3.40 GiB
Duration : 1h 44mn
Overall bit rate : 4 681 Kbps
Video
Format/Info : Advanced Video Codec
Format profile : High@L4.1
Duration : 1h 44mn
Bit rate : 4 507 Kbps
Width : 1 280 pixels
Height : 544 pixels
Display aspect ratio : 2.35:1
Frame rate : 23.976 fps
Stream size : 3.19 GiB (94%)
Title : CiNEFiLE
Writing library : x264 core 107 r1745 4785e8e
Language : English
Audio
Format : AC-3
Duration : 1h 44mn
Bit rate mode : Constant
Bit rate : 192 Kbps
Channel(s) : 2 channels
Stream size : 143 MiB (4%)
Title : AC3 2.0 - 192 kbps Crash
Language : Polish



Carlos (2010) PL.720p.BR.x264-Crash / POLSKI LEKTOR
Uwaga! Linki nie zakodowane tylko dla zarejestrowanych użytkowników!

Nie masz konta? Zarejestruj się za darmo!
----------------
Links are not encoded only for registered users only! Plese login or register!


Carlos (2010) PL.720p.BR.x264-Crash / POLSKI LEKTOR
Uwaga! Linki nie zakodowane tylko dla zarejestrowanych użytkowników!

Nie masz konta? Zarejestruj się za darmo!
----------------
Links are not encoded only for registered users only! Plese login or register!





Carlos (2010) PL.720p.BR.x264-Crash / POLSKI LEKTOR

Format : Matroska
File size : 3.33 GiB
Duration : 1h 51mn
Overall bit rate : 4 258 Kbps
Video
Format/Info : Advanced Video Codec
Format profile : High@L4.1
Codec ID : V_MPEG4/ISO/AVC
Duration : 1h 51mn
Bit rate : 4 082 Kbps
Width : 1 280 pixels
Height : 544 pixels
Display aspect ratio : 2.35:1
Frame rate : 23.976 fps
Stream size : 3.11 GiB (94%)
Title : CiNEFiLE
Writing library : x264 core 107 r1745 4785e8e
Language : English
Audio
Format : AC-3
Duration : 1h 51mn
Bit rate mode : Constant
Bit rate : 192 Kbps
Channel(s) : 2 channels
Stream size : 154 MiB (5%)
Title : AC3 2.0 - 192 kbps Crash
Language : Polish

Uwaga! Linki nie zakodowane tylko dla zarejestrowanych użytkowników!

Nie masz konta? Zarejestruj się za darmo!
----------------
Links are not encoded only for registered users only! Plese login or register!


Carlos (2010) PL.720p.BR.x264-Crash / POLSKI LEKTOR
Uwaga! Linki nie zakodowane tylko dla zarejestrowanych użytkowników!

Nie masz konta? Zarejestruj się za darmo!
----------------
Links are not encoded only for registered users only! Plese login or register!







Carlos (2010) PL.720p.BR.x264-Crash / POLSKI LEKTOR

Format : Matroska
File size : 5.41 GiB
Duration : 2h 3mn
Overall bit rate : 6 259 Kbps
Video
Format/Info : Advanced Video Codec
Format profile : High@L4.1
Duration : 2h 3mn
Bit rate : 6 095 Kbps
Width : 1 280 pixels
Height : 544 pixels
Display aspect ratio : 2.35:1
Frame rate : 23.976 fps
Stream size : 5.13 GiB (95%)
Title : CiNEFiLE
Writing library : x264 core 107 r1745 4785e8e
Language : English
Audio
Format : AC-3
Duration : 2h 3mn
Bit rate mode : Constant
Bit rate : 192 Kbps
Channel(s) : 2 channels
Stream size : 170 MiB (3%)
Title : AC3 2.0 - 192 kbps Crash
Language : Polish

Uwaga! Linki nie zakodowane tylko dla zarejestrowanych użytkowników!

Nie masz konta? Zarejestruj się za darmo!
----------------
Links are not encoded only for registered users only! Plese login or register!

Carlos (2010) PL.720p.BR.x264-Crash / POLSKI LEKTOR
Uwaga! Linki nie zakodowane tylko dla zarejestrowanych użytkowników!

Nie masz konta? Zarejestruj się za darmo!
----------------
Links are not encoded only for registered users only! Plese login or register!



Użytkownik VIP

CrashRedVIP

#1 | Dodany: 7 Styczeń 2012 17:03

ok
Użytkownik VIP

dyskoteka1987Trial Uploader

#2 | Dodany: 7 Styczeń 2012 22:10

thx
Użytkownik VIP

keruletUżytkownik

#3 | Dodany: 13 Styczeń 2012 20:15

niestety, w ostatnich 15 minutach trzeciej czesci jest rozsynchronizowane audio z video...

Informacje

Jeżeli chcesz skomentować artykuł musisz być zarejestrowany na stronie.