EXSite.pl - Portal ze wszystkim Mamy tutaj wszystko

NIE MASZ JESZCZE KONTA? ZAREJESTRUJ SIĘ ZA DARMO!   
Przypomnij hasło X

Nie zadzieraj z fryzjerem / You Don't Mess with the Zohan (2008) PL.1080p.BluRay.x264-Crash / POLSKI LEKTOR

Dodał: CrashRed 7 Styczeń 2012 18:41


Nie zadzieraj z fryzjerem / You Don't Mess with the Zohan (2008) PL.1080p.BluRay.x264-Crash / POLSKI LEKTOR

Nie zadzieraj z fryzjerem / You Don't Mess with the Zohan (2008)  PL.1080p.BluRay.x264-Crash / POLSKI LEKTOR

Nie zadzieraj z fryzjerem / You Don't Mess with the Zohan (2008)  PL.1080p.BluRay.x264-Crash / POLSKI LEKTOR
http://www.filmweb.pl/film/Nie+zadzieraj+z+fryzjerem-2008-457545

czas trwania: 1 godz. 53 min.
gatunek: Komedia, Akcja
premiera: 12 września 2008 (Polska) 2008-09-12 6 czerwca 2008 (świat) 2008-06-06
produkcja: USA
reżyseria: Dennis Dugan
scenariusz: Adam Sandler, Robert Smigel

Sandler gra rolę Zohana, znakomicie wyszkolonego izraelskiego komandosa, który chcąc zerwać z dotychczasową profesją najpierw pozoruje swoją śmierć, a następnie udaje się do Nowego Jorku, żeby spełnić swoje życiowe marzenie – zostać "stylistą fryzur". Zohan usilnie stara się zamknąć swoją przeszłość, ale szybko przekonuje się, że odcięcie się od własnych korzeni nie jest to takie proste. Starają się go dopaść starzy i nowi wrogowie, jednak szybko okaże się, że nikomu nie wyjdzie na dobre
zadzieranie z Zohanem. Agent Mossadu pozoruje swoją śmierć, a następnie przenosi się do Nowego Jorku, gdzie zamierza spełnić swoje największe marzenie: zostać fryzjerem


Nie zadzieraj z fryzjerem / You Don't Mess with the Zohan (2008)  PL.1080p.BluRay.x264-Crash / POLSKI LEKTOR
Nie zadzieraj z fryzjerem / You Don't Mess with the Zohan (2008)  PL.1080p.BluRay.x264-Crash / POLSKI LEKTOR

Format : Matroska
File size : 11.3 GiB
Duration : 1h 56mn
Overall bit rate : 13.9 Mbps
Video
Format/Info : Advanced Video Codec
Format profile : High@L5.0
Duration : 1h 56mn
Bit rate : 13.4 Mbps
Width : 1 920 pixels
Height : 1 040 pixels
Display aspect ratio : 16:9
Frame rate : 23.976 fps
Stream size : 10.8 GiB (95%)
Title : You Don't Mess with the Zohan 2008 1080p RuTor
Writing library : x264 core 64 r994M b35a044
Language : English
Audio
Format : AC-3
Duration : 1h 56mn
Bit rate mode : Constant
Bit rate : 448 Kbps
Channel(s) : 6 channels
Stream size : 375 MiB (3%)
Title : Crash-Polski



Nie zadzieraj z fryzjerem / You Don't Mess with the Zohan (2008)  PL.1080p.BluRay.x264-Crash / POLSKI LEKTOR
Uwaga! Linki nie zakodowane tylko dla zarejestrowanych użytkowników!

Nie masz konta? Zarejestruj się za darmo!
----------------
Links are not encoded only for registered users only! Plese login or register!


Nie zadzieraj z fryzjerem / You Don't Mess with the Zohan (2008)  PL.1080p.BluRay.x264-Crash / POLSKI LEKTOR
Uwaga! Linki nie zakodowane tylko dla zarejestrowanych użytkowników!

Nie masz konta? Zarejestruj się za darmo!
----------------
Links are not encoded only for registered users only! Plese login or register!

Użytkownik VIP

CrashRedVIP

#1 | Dodany: 7 Styczeń 2012 18:45

ok
Użytkownik VIP

QbaQbaPLUżytkownik

#2 | Dodany: 7 Styczeń 2012 18:57

Polecam! Dobry film!
Użytkownik VIP

dyskoteka1987Trial Uploader

#3 | Dodany: 8 Styczeń 2012 00:28

Komedia dobra , można się uśmiać ... wink
Użytkownik VIP

ampatinisUżytkownik

#4 | Dodany: 24 Styczeń 2012 16:14

Nie zadzieraj z fryzjerem / You Don't Mess with the Zohan (2008) PL.1080p.BluRay.x264-Crash / POLSKI LEKTOR


Format : Matroska
File size : 11.3 GiB
Duration : 1h 56mn
Overall bit rate : 13.9 Mbps
Video
Format/Info : Advanced Video Codec
Format profile : High@L5.0
Duration : 1h 56mn
Bit rate : 13.4 Mbps
Width : 1 920 pixels
Height : 1 040 pixels
Display aspect ratio : 16:9
Frame rate : 23.976 fps
Stream size : 10.8 GiB (95%)
Title : You Don't Mess with the Zohan 2008 1080p RuTor
Writing library : x264 core 64 r994M b35a044
Language : English
Audio
Format : AC-3
Duration : 1h 56mn
Bit rate mode : Constant
Bit rate : 448 Kbps
Channel(s) : 6 channels
Stream size : 375 MiB (3%)
Title : Crash-Polski



Uwaga! Linki nie zakodowane tylko dla zarejestrowanych użytkowników!

Nie masz konta? Zarejestruj się za darmo!
----------------
Links are not encoded only for registered users only! Plese login or register!

Informacje

Jeżeli chcesz skomentować artykuł musisz być zarejestrowany na stronie.