EXSite.pl - Portal ze wszystkim Mamy tutaj wszystko

NIE MASZ JESZCZE KONTA? ZAREJESTRUJ SIĘ ZA DARMO!   
Przypomnij hasło X

Z archiwum X: Chcę wierzyć / The X-Files: I Want to Believe (2008) PL.720p.BluRay.x264-Crash DirCut / POLSKI LEKTOR

Dodał: CrashRed 8 Styczeń 2012 15:54


Z archiwum X: Chcę wierzyć / The X-Files: I Want to Believe (2008) PL.720p.BluRay.x264-Crash DirCut / POLSKI LEKTOR

Z archiwum X: Chcę wierzyć / The X-Files: I Want to Believe (2008) PL.720p.BluRay.x264-Crash DirCut / POLSKI LEKTOR

Z archiwum X: Chcę wierzyć / The X-Files: I Want to Believe (2008) PL.720p.BluRay.x264-Crash DirCut / POLSKI LEKTOR
http://www.filmweb.pl/film/Z+archiwum+X%3A+Chc%C4%99+wierzy%C4%87-2008-119834

czas trwania: 1 godz. 44 min.
gatunek: Thriller, Sci-Fi
premiera: 25 lipca 2008 (Polska) 2008-07-25 24 lipca 2008 (świat) 2008-07-24
produkcja: Kanada, USA
reżyseria: Chris Carter
scenariusz: Chris Carter, Frank Spotnitz

Akcja toczy się sześć lat po poprzednim odcinku. Zostaje porwana agentka FBI Monica Bannan (Xantha Radley). W poszukiwaniach FBI pomaga ojciec, Joseph Crissman (Billy Connolly), który twierdzi, że ma wizje. śledczy nie wierzą księdzu. Proszą o pomoc dr Danę Scully (Gillian Anderson) oraz Foxa Muldera (David Duchovny). Niechętnie, ale zgadzają się, gdyż oboje nie są już agentami. W tym samym czasie porywane są kolejne kobiety, wyselekcjonowane poprzez rzadką grupę krwi. Ojciec Joseph ma kolejną wizję, ale nikt mu nie chce wierzyć, poza Mulderem.


Z archiwum X: Chcę wierzyć / The X-Files: I Want to Believe (2008) PL.720p.BluRay.x264-Crash DirCut / POLSKI LEKTOR
Z archiwum X: Chcę wierzyć / The X-Files: I Want to Believe (2008) PL.720p.BluRay.x264-Crash DirCut / POLSKI LEKTOR

Format : Matroska
File size : 5.63 GiB
Duration : 1h 48mn
Overall bit rate : 7 452 Kbps
Video
Format/Info : Advanced Video Codec
Format profile : High@L4.1
Duration : 1h 48mn
Bit rate : 7 065 Kbps
Width : 1 280 pixels
Height : 534 pixels
Display aspect ratio : 2.35:1
Frame rate : 23.976 fps
Stream size : 5.23 GiB (93%)
Writing library : x264 core 65 r1046M 71d34b4
Language : English
Audio
Format : AC-3
Duration : 1h 48mn
Bit rate mode : Constant
Bit rate : 384 Kbps
Channel(s) : 6 channels
Stream size : 297 MiB (5%)
Title : Crash-Polski



Z archiwum X: Chcę wierzyć / The X-Files: I Want to Believe (2008) PL.720p.BluRay.x264-Crash DirCut / POLSKI LEKTOR
Uwaga! Linki nie zakodowane tylko dla zarejestrowanych użytkowników!

Nie masz konta? Zarejestruj się za darmo!
----------------
Links are not encoded only for registered users only! Plese login or register!


Z archiwum X: Chcę wierzyć / The X-Files: I Want to Believe (2008) PL.720p.BluRay.x264-Crash DirCut / POLSKI LEKTOR
Uwaga! Linki nie zakodowane tylko dla zarejestrowanych użytkowników!

Nie masz konta? Zarejestruj się za darmo!
----------------
Links are not encoded only for registered users only! Plese login or register!

Użytkownik VIP

CrashRedVIP

#1 | Dodany: 8 Styczeń 2012 15:54

ok
Użytkownik VIP

dyskoteka1987Trial Uploader

#2 | Dodany: 8 Styczeń 2012 18:37

thx

Informacje

Jeżeli chcesz skomentować artykuł musisz być zarejestrowany na stronie.