EXSite.pl - Portal ze wszystkim Mamy tutaj wszystko

NIE MASZ JESZCZE KONTA? ZAREJESTRUJ SIĘ ZA DARMO!   
Przypomnij hasło X

Ostatni sprawiedliwy / Last Man Standing (1996) PL.720p.Bluray.x264-Destiny / POLSKI LEKTOR

Dodał: CrashRed 8 Styczeń 2012 16:27


Ostatni sprawiedliwy / Last Man Standing (1996) PL.720p.Bluray.x264-Destiny / POLSKI LEKTOR

Ostatni sprawiedliwy / Last Man Standing (1996) PL.720p.Bluray.x264-Destiny / POLSKI LEKTOR

Ostatni sprawiedliwy / Last Man Standing (1996) PL.720p.Bluray.x264-Destiny / POLSKI LEKTOR

http://www.filmweb.pl/film/Ostatni+sprawiedliwy-1996-688

czas trwania: 1 godz. 41 min.
gatunek: Gangsterski
premiera: 24 stycznia 1997 (Polska) 1997-01-24 20 września 1996 (świat) 1996-09-20
produkcja: USA
reżyseria: Walter Hill
scenariusz: Walter Hill

Teksas, lata trzydzieste. Samotny wędrowiec przybywa do wyludnionego miasta opanowanego przez dwie konkurujące bandy przemytników. Licząc na łatwy zarobek - przybysz przyłącza się do jednej z band i współpracuje z drugą.


Ostatni sprawiedliwy / Last Man Standing (1996) PL.720p.Bluray.x264-Destiny / POLSKI LEKTOR
Ostatni sprawiedliwy / Last Man Standing (1996) PL.720p.Bluray.x264-Destiny / POLSKI LEKTOR

Format : Matroska
File size : 3.84 GiB
Duration : 1h 41mn
Overall bit rate : 5 441 Kbps
Video
Format/Info : Advanced Video Codec
Format profile : High@L4.1
Duration : 1h 41mn
Bit rate : 5 245 Kbps
Width : 1 280 pixels
Height : 544 pixels
Display aspect ratio : 2.35:1
Frame rate : 23.976 fps
Stream size : 3.63 GiB (94%)
Title : FLAWL3SS
Writing library : x264 core 116 r2074 2641b9e
Language : English
Audio
Format : AC-3
Duration : 1h 41mn
Bit rate mode : Constant
Bit rate : 192 Kbps
Channel(s) : 2 channels
Stream size : 139 MiB (4%)
Title : Destiny-Polski



Ostatni sprawiedliwy / Last Man Standing (1996) PL.720p.Bluray.x264-Destiny / POLSKI LEKTOR
Uwaga! Linki nie zakodowane tylko dla zarejestrowanych użytkowników!

Nie masz konta? Zarejestruj się za darmo!
----------------
Links are not encoded only for registered users only! Plese login or register!



Użytkownik VIP

CrashRedVIP

#1 | Dodany: 8 Styczeń 2012 16:28

ok
Użytkownik VIP

dziad997Użytkownik

#2 | Dodany: 17 Styczeń 2012 18:02

Last Man Standing / Ostatni sprawiedliwy (1996) DVDRip XviD Lektor PL

Uwaga! Linki nie zakodowane tylko dla zarejestrowanych użytkowników!

Nie masz konta? Zarejestruj się za darmo!
----------------
Links are not encoded only for registered users only! Plese login or register!

Informacje

Jeżeli chcesz skomentować artykuł musisz być zarejestrowany na stronie.