EXSite.pl - Portal ze wszystkim Mamy tutaj wszystko

NIE MASZ JESZCZE KONTA? ZAREJESTRUJ SIĘ ZA DARMO!   
Przypomnij hasło X

Zabójczy numer / Lucky Number Slevin (2006) PL.1080p.BluRay.x264.Crash / POLSKI LEKTOR

Dodał: CrashRed 8 Styczeń 2012 16:53


Zabójczy numer / Lucky Number Slevin (2006) PL.1080p.BluRay.x264.Crash / POLSKI LEKTOR

Zabójczy numer / Lucky Number Slevin (2006) PL.1080p.BluRay.x264.Crash / POLSKI LEKTOR

Zabójczy numer / Lucky Number Slevin (2006) PL.1080p.BluRay.x264.Crash / POLSKI LEKTOR
http://www.filmweb.pl/Zabojczy.Numer

czas trwania: 1 godz. 49 min.
gatunek: Komedia kryminalna
premiera: 18 sierpnia 2006 (Polska) 2006-08-18 24 lutego 2006 (świat) 2006-02-24
produkcja: Niemcy, USA
reżyseria: Paul McGuigan
scenariusz: Jason Smilovic

Życie nie układa się Slevinovi (Josh Hartnett). Budynek, w którym mieszkał uznano za niezdatny do zamieszkiwania, kieszonkowiec ukradł mu dokumenty, a do tego Slevin przyłapał swoją dziewczynę w łóżku z innym. Przeprowadza się do Nowego Jorku, ale jego niefart dogoni go i tu, a sprawy przybiorą nieoczekiwany obrót. Tymczasem w podziemnym światku Nowego Jorku dwóch bossów przestępczych Rabin (Ben Kingsley) i Boss (Morgan Freeman), kiedyś wspólnicy, teraz śmiertelni wrogowie, nie wychodząc ze
swoich fortec, prowadzą walkę na ulicach miasta. Obaj mają wielką władzę i obsesję na swoim punkcie. Aby pomścić zamordowanie syna, Boss planuje dopaść syna Rabina. Wynajmuje w tym celu sławnego zabójcę, Goodkata (Bruce Willis), którego pomysł jest prosty - znaleźć hazardzistę, który winien jest Bossowi mnóstwo pieniędzy i zmusić go do zabicia syna Rabina. Celem staje się Nick Fisher. Po przyjeździe do Nowego Jorku Slevin zatrzymuje się w mieszkaniu znajomego - Nicka Fishera. I Kiedy Slevin zaczyna flirtować z piękna sąsiadką Nicka, Lindsey (Lucy Liu) do drzwi mieszkania puka wysłannik Bossa, który przybył, żeby sprowadzić Nicka Fishera. Mimo protestów Slevina, nie daje się przekonać, że to pomyłka i zawozi Slevina do fortecy Boss'a. Niedługo później znajdą Slevina także ludzie Rabina, którzy również biorą go za Nicka Fishera, który był winien pieniądze również Rabinowi. Powiązania Slevina z dwoma bossami przestępczymi, powodują także, że zaczynają się nim interesować także najlepsi nowojorscy detektywi, między innymi Brikowski (Stanley Tucci). I tak rzecz cała zmierza do nieuchronnego, acz zaskakującego finału


Zabójczy numer / Lucky Number Slevin (2006) PL.1080p.BluRay.x264.Crash / POLSKI LEKTOR
Zabójczy numer / Lucky Number Slevin (2006) PL.1080p.BluRay.x264.Crash / POLSKI LEKTOR

Format : Matroska
File size : 9.88 GiB
Duration : 1h 50mn
Overall bit rate : 12.8 Mbps
Video
Format : AVC
Format profile : High@L4.1
Duration : 1h 50mn
Bit rate : 12.4 Mbps
Width : 1 920 pixels
Height : 800 pixels
Display aspect ratio : 2.40:1
Frame rate : 23.976 fps
Stream size : 9.34 GiB (95%)
Title : WiKi
Writing library : x264 core 98 r1649 c54c47d
Language : English
Audio
Format : AC-3
Duration : 1h 50mn
Bit rate mode : Constant
Bit rate : 448 Kbps
Channel(s) : 6 channels
Stream size : 353 MiB (3%)
Title : Crash-Polski



Zabójczy numer / Lucky Number Slevin (2006) PL.1080p.BluRay.x264.Crash / POLSKI LEKTOR
Uwaga! Linki nie zakodowane tylko dla zarejestrowanych użytkowników!

Nie masz konta? Zarejestruj się za darmo!
----------------
Links are not encoded only for registered users only! Plese login or register!


Zabójczy numer / Lucky Number Slevin (2006) PL.1080p.BluRay.x264.Crash / POLSKI LEKTOR
Uwaga! Linki nie zakodowane tylko dla zarejestrowanych użytkowników!

Nie masz konta? Zarejestruj się za darmo!
----------------
Links are not encoded only for registered users only! Plese login or register!

Użytkownik VIP

CrashRedVIP

#1 | Dodany: 8 Styczeń 2012 16:53

ok
Użytkownik VIP

tajson49Użytkownik

#2 | Dodany: 8 Styczeń 2012 17:31

smile
Użytkownik VIP

dyskoteka1987Trial Uploader

#3 | Dodany: 8 Styczeń 2012 18:35

thx

Informacje

Jeżeli chcesz skomentować artykuł musisz być zarejestrowany na stronie.